Вы используете незарегистрированную версию компонента "Вкладки"!

Поиск

(Jazz, Avant-Garde, Free Funk) Music Revelation Ensemble - Cross Fire - 1998, FLAC (image+.cue), lossless

(Jazz, Avant-Garde, Free Funk) Music Revelation Ensemble - Cross Fire - 1998, FLAC (image+.cue), lossless
Треклист:
Music Revelation Ensemble - Cross Fire
Жанр: Jazz, Avant-Garde, Free Funk
Год выпуска диска: 1998
Производитель диска: DIW-927
Аудио кодек: FLAC
Тип рипа: image+.cue
Битрейт аудио: lossless
Продолжительность: 53:08
Ripper: desertrat aka wustenratte
Трэклист:
1. Law
2. Suspect
3. Devotion
4. Sweet
5. Proof
6. My Prayer
7. Evidence
8. Backbeat
Music Revelation Ensemble:
James "Blood" Ulmer: Guitar
Calvin "Hassen Truth" Jones: Bass
Cornell W. Rochester: Drums
featuring
Pharoah Sanders: Tenor (2,4,6,7)
John Zorn: Alto (1,3,5,8)
Recorded at Avatar, New York City on December 17 & 18, 1996.
Mixed at Avatar, New York City on January 20 & 21, 1996.
20 Bit Recording
(C)(P) 1997 DiskUnion
JASRAC R-9790023
 
EAC extraction logfile
Exact Audio Copy V0.99 prebeta 4 from 23. January 2008
EAC extraction logfile from 19. February 2010, 9:00
Music Revelation Ensemble / Cross Fire
Used drive : Optiarc DVD RW AD-7560A Adapter: 0 ID: 0
Read mode : Secure
Utilize accurate stream : Yes
Defeat audio cache : Yes
Make use of C2 pointers : No
Read offset correction : 6
Overread into Lead-In and Lead-Out : No
Fill up missing offset samples with silence : Yes
Delete leading and trailing silent blocks : No
Null samples used in CRC calculations : Yes
Used interface : Native Win32 interface for Win NT & 2000
Used output format : Internal WAV Routines
Sample format : 44.100 Hz; 16 Bit; Stereo
TOC of the extracted CD
Track | Start | Length | Start sector | End sector
---------------------------------------------------------
1 | 0:00.00 | 5:36.45 | 0 | 25244
2 | 5:36.45 | 7:10.50 | 25245 | 57544
3 | 12:47.20 | 4:30.42 | 57545 | 77836
4 | 17:17.62 | 5:18.23 | 77837 | 101709
5 | 22:36.10 | 6:36.67 | 101710 | 131476
6 | 29:13.02 | 9:14.53 | 131477 | 173079
7 | 38:27.55 | 7:59.57 | 173080 | 209061
8 | 46:27.37 | 6:40.70 | 209062 | 239131
Range status and errors
Selected range
Filename C:\DESERTRAT EAC RIPs\25 MRE - Crossfire (1997)\Music Revelation Ensemble - Cross Fire.wav
Peak level 99.9 %
Range quality 100.0 %
Test CRC 44A9C718
Copy CRC 44A9C718
Copy OK
No errors occurred
AccurateRip summary
Track 1 not present in database
Track 2 not present in database
Track 3 not present in database
Track 4 not present in database
Track 5 not present in database
Track 6 not present in database
Track 7 not present in database
Track 8 not present in database
None of the tracks are present in the AccurateRip database
End of status report
Any questions -> support@pro-jazz.com. По всем вопросам пишите -> support@pro-jazz.com
19:13
130
Нет комментариев. Ваш будет первым!