Вы используете незарегистрированную версию компонента "Вкладки"!

Поиск

(Jazz, Avant-Garde, Free Funk) James Blood Ulmer - Free Lancing - 1981, FLAC (image+.cue), lossless

(Jazz, Avant-Garde, Free Funk) James Blood Ulmer - Free Lancing - 1981, FLAC (image+.cue), lossless
Треклист:
James Blood Ulmer - Free Lancing
Жанр: Jazz, Avant-Garde, Free Funk
Год выпуска диска: 1981
Производитель диска: Sony Records Japan SRCS 7184
Аудио кодек: FLAC
Тип рипа: image+.cue
Битрейт аудио: lossless
Продолжительность: 47:39
Ripper: desertrat aka wustenratte
Трэклист:
1. Timeless*
2. Pleasure Control**
3. Night Lover*
4. Where Did All the Girls Come From?**
5. High Time***
6. Hijack***
7. Free Lancing*
8. Stand Up To Yourself**
9. Rush Hour***
10. Happy Time*
*
James "Blood" Ulmer: Guitar, Vocal
Amin Ali: Electric Bass
G. Calvin Weston: Drums
**
James "Blood" Ulmer: Guitar, Vocal
Amin Ali: Electric Bass
G. Calvin Weston: Drums
Ronnie Drayton: Second Guitar
Irene Datcher, Diane Wilson, Zenobia Kankerite: Backround Vocals
***
James "Blood" Ulmer: Guitar
Amin Ali: Electric Bass
G. Calvin Weston: Drums
David Murray: Tenor Sax
Oliver Lake: Alto Sax
Olu Dara: Trumpet
 
EAC extraction logfile
Exact Audio Copy V0.99 prebeta 4 from 23. January 2008
EAC extraction logfile from 10. February 2010, 9:02
James Blood Ulmer / Free Lancing
Used drive : Optiarc DVD RW AD-7560A Adapter: 0 ID: 0
Read mode : Secure
Utilize accurate stream : Yes
Defeat audio cache : Yes
Make use of C2 pointers : No
Read offset correction : 6
Overread into Lead-In and Lead-Out : No
Fill up missing offset samples with silence : Yes
Delete leading and trailing silent blocks : No
Null samples used in CRC calculations : Yes
Used interface : Native Win32 interface for Win NT & 2000
Used output format : Internal WAV Routines
Sample format : 44.100 Hz; 16 Bit; Stereo
TOC of the extracted CD
Track | Start | Length | Start sector | End sector
---------------------------------------------------------
1 | 0:00.00 | 4:24.00 | 0 | 19799
2 | 4:24.00 | 5:03.35 | 19800 | 42559
3 | 9:27.35 | 5:25.62 | 42560 | 66996
4 | 14:53.22 | 4:41.53 | 66997 | 88124
5 | 19:35.00 | 4:03.52 | 88125 | 106401
6 | 23:38.52 | 4:43.60 | 106402 | 127686
7 | 28:22.37 | 4:40.25 | 127687 | 148711
8 | 33:02.62 | 3:46.63 | 148712 | 165724
9 | 36:49.50 | 5:34.72 | 165725 | 190846
10 | 42:24.47 | 5:14.40 | 190847 | 214436
Range status and errors
Selected range
Filename C:\DESERTRAT EAC RIPs\05 JBU - FREE LANCING (1981) FLAC\James Blood Ulmer - Free Lancing.wav
Peak level 98.6 %
Range quality 100.0 %
Test CRC FA71017A
Copy CRC FA71017A
Copy OK
No errors occurred
AccurateRip summary
Track 1 not present in database
Track 2 not present in database
Track 3 not present in database
Track 4 not present in database
Track 5 not present in database
Track 6 not present in database
Track 7 not present in database
Track 8 not present in database
Track 9 not present in database
Track 10 not present in database
None of the tracks are present in the AccurateRip database
End of status report
Any questions -> support@pro-jazz.com. По всем вопросам пишите -> support@pro-jazz.com
18:56
175
Нет комментариев. Ваш будет первым!