Вы используете незарегистрированную версию компонента "Вкладки"!

Поиск

(jazz, avant-garde) Bill Dixon 7-Tette Archie Shepp and the New York Contemporary 5, FLAC (tracks+.cue), lossless

Треклист:


Bill Dixon 7-Tette _ Archie Shepp and the New York Contemporary 5
Жанр:jazz, avant-garde
Год выпуска:
Формат: FLAC (tracks+.cue)
Битрейт аудио: lossless
Продолжительность
Источник: ed2k
* Bill Dixon: trumpet (tracks 1-9)
* Ken McIntyre: alto saxophone, oboe (tracks 1-9)
* George Barrow: tenor saxophone (tracks 1-9)
* Howard Johnson: tuba, baritone saxophone (tracks 1-9)
* David Izenzon: bass (tracks 1-9)
* Hal Dodson: bass (tracks 1-9)
* Howard McRae: drums (tracks 1-9)
* Archie Shepp: tenor saxophone (tracks 10-12)
* John Tchicai: alto saxophone (tracks 10-12)
* Ted Curson: trumpet (tracks 10 & 11)
* Don Cherry: trumpet (track 12)
* Ronnie Boykins: bass (tracks 10-12)
* Sunny Murray: drums (tracks 10-12)
Recorded at Savoy Studios, Newark on March 4, 1964 (tracks 1-9) and New York City on February 5, 1964 (tracks 10-12)

tracks

1. "Winter Song 1964: Section I, Letters A, B, C, D" (Bill Dixon) - 1:30
2. "Winter Song 1964: Section II, Letter E" (Dixon) - 0:47
3. "Winter Song 1964: Section III, Letter F" (Dixon) - 9:17
4. "Winter Song 1964: Section IV, Letter G" (Dixon) - 0:46
5. "Winter Song 1964: Section V, Letter H Played Three Times" (Dixon) - 1:49
6. "Coda" (Dixon) - 0:31
7. "The 12th December" (Dixon) - 3:20
8. "Winter Song 1964: Section III, Letter F" [alternate take] (Dixon) - 7:25 Bonus track on CD reissue
9. "Winter Song 1964: Section III, Letter F" [alternate study] (Dixon) - 9:46 Bonus track on CD reissue
10. "Where Poppies Bloom (Where Poppies Blow)" (Archie Shepp) - 7:47
11. "Like a Blessed Baby Lamb" (Shepp) - 9:27
12. "Consequences" (Don Cherry) - 4:55


 
.log
X Lossless Decoder version 20100206 (115.6)
XLD extraction logfile from 2010-02-06 10:14:43 -0800
Bill Dixon / Bill Dixon 7-Tette
Used drive : OPTIARC DVD RW AD-5680H (revision 3AHB)
Use cdparanoia mode : YES (CDParanoia III 10.2 engine)
Disable audio cache : OK for the drive with cache less than 2750KB
Make use of C2 pointers : NO
Read offset correction : 48
Max retry count : 100
TOC of the extracted CD
Track | Start | Length | Start sector | End sector
---------------------------------------------------------
1 | 00:00:00 | 01:30:63 | 0 | 6812
2 | 01:30:63 | 00:47:15 | 6813 | 10352
3 | 02:18:03 | 09:17:12 | 10353 | 52139
4 | 11:35:15 | 00:46:73 | 52140 | 55662
5 | 12:22:13 | 01:49:42 | 55663 | 63879
6 | 14:11:55 | 00:29:25 | 63880 | 66079
7 | 14:41:05 | 03:14:45 | 66080 | 80674
8 | 17:55:50 | 07:21:70 | 80675 | 113819
9 | 25:17:45 | 09:42:10 | 113820 | 157479
10 | 34:59:55 | 07:45:13 | 157480 | 192367
11 | 42:44:68 | 09:25:42 | 192368 | 234784
12 | 52:10:35 | 04:55:70 | 234785 | 256979
Track 01
Filename : /Users/micahgilbert/Music/iTunes/iTunes Media/Music/Archie Shepp & the New York Contemporary 5 - Bill Dixon 7-Tette/01 - Section I.flac
Pre-gap length : 00:02:00
CRC32 hash (test run) : C81C86D7
CRC32 hash : C81C86D7
CRC32 hash (skip zero) : 4E9C859D
AccurateRip signature : 839982FB
->Track not present in AccurateRip database.
Statistics
Read error : 0
Skipped (treated as error) : 0
Edge jitter error (maybe fixed) : 0
Atom jitter error (maybe fixed) : 0
Drift error (maybe fixed) : 0
Dropped bytes error (maybe fixed) : 0
Duplicated bytes error (maybe fixed) : 0
Inconsistency in error sectors : 0
Track 02
Filename : /Users/micahgilbert/Music/iTunes/iTunes Media/Music/Archie Shepp & the New York Contemporary 5 - Bill Dixon 7-Tette/02 - Section II.flac
CRC32 hash (test run) : 06120756
CRC32 hash : 06120756
CRC32 hash (skip zero) : 1ADC4486
AccurateRip signature : 446562EB
->Track not present in AccurateRip database.
Statistics
Read error : 0
Skipped (treated as error) : 0
Edge jitter error (maybe fixed) : 0
Atom jitter error (maybe fixed) : 0
Drift error (maybe fixed) : 0
Dropped bytes error (maybe fixed) : 0
Duplicated bytes error (maybe fixed) : 0
Inconsistency in error sectors : 0
Track 03
Filename : /Users/micahgilbert/Music/iTunes/iTunes Media/Music/Archie Shepp & the New York Contemporary 5 - Bill Dixon 7-Tette/03 - Section III.flac
CRC32 hash (test run) : A6AD7CDA
CRC32 hash : A6AD7CDA
CRC32 hash (skip zero) : 208B83D3
AccurateRip signature : 6942BF68
->Track not present in AccurateRip database.
Statistics
Read error : 0
Skipped (treated as error) : 0
Edge jitter error (maybe fixed) : 0
Atom jitter error (maybe fixed) : 0
Drift error (maybe fixed) : 0
Dropped bytes error (maybe fixed) : 0
Duplicated bytes error (maybe fixed) : 0
Inconsistency in error sectors : 0
Track 04
Filename : /Users/micahgilbert/Music/iTunes/iTunes Media/Music/Archie Shepp & the New York Contemporary 5 - Bill Dixon 7-Tette/04 - Section IV.flac
CRC32 hash (test run) : 5F52B467
CRC32 hash : 5F52B467
CRC32 hash (skip zero) : 788694AF
AccurateRip signature : 5C54586C
->Track not present in AccurateRip database.
Statistics
Read error : 0
Skipped (treated as error) : 0
Edge jitter error (maybe fixed) : 0
Atom jitter error (maybe fixed) : 0
Drift error (maybe fixed) : 0
Dropped bytes error (maybe fixed) : 0
Duplicated bytes error (maybe fixed) : 0
Inconsistency in error sectors : 0
Track 05
Filename : /Users/micahgilbert/Music/iTunes/iTunes Media/Music/Archie Shepp & the New York Contemporary 5 - Bill Dixon 7-Tette/05 - Section V.flac
CRC32 hash (test run) : CF79EDC2
CRC32 hash : CF79EDC2
CRC32 hash (skip zero) : C3E06FD9
AccurateRip signature : F9355AD1
->Track not present in AccurateRip database.
Statistics
Read error : 0
Skipped (treated as error) : 0
Edge jitter error (maybe fixed) : 0
Atom jitter error (maybe fixed) : 0
Drift error (maybe fixed) : 0
Dropped bytes error (maybe fixed) : 0
Duplicated bytes error (maybe fixed) : 0
Inconsistency in error sectors : 0
Track 06
Filename : /Users/micahgilbert/Music/iTunes/iTunes Media/Music/Archie Shepp & the New York Contemporary 5 - Bill Dixon 7-Tette/06 - Coda.flac
CRC32 hash (test run) : 04BBC150
CRC32 hash : 04BBC150
CRC32 hash (skip zero) : 52A1C841
AccurateRip signature : 30CCB490
->Track not present in AccurateRip database.
Statistics
Read error : 0
Skipped (treated as error) : 0
Edge jitter error (maybe fixed) : 0
Atom jitter error (maybe fixed) : 0
Drift error (maybe fixed) : 0
Dropped bytes error (maybe fixed) : 0
Duplicated bytes error (maybe fixed) : 0
Inconsistency in error sectors : 0
Track 07
Filename : /Users/micahgilbert/Music/iTunes/iTunes Media/Music/Archie Shepp & the New York Contemporary 5 - Bill Dixon 7-Tette/07 - The 12th December.flac
CRC32 hash (test run) : 7969190C
CRC32 hash : 7969190C
CRC32 hash (skip zero) : 39D0BF34
AccurateRip signature : 0037CA7A
->Track not present in AccurateRip database.
Statistics
Read error : 0
Skipped (treated as error) : 0
Edge jitter error (maybe fixed) : 0
Atom jitter error (maybe fixed) : 0
Drift error (maybe fixed) : 0
Dropped bytes error (maybe fixed) : 0
Duplicated bytes error (maybe fixed) : 0
Inconsistency in error sectors : 0
Track 08
Filename : /Users/micahgilbert/Music/iTunes/iTunes Media/Music/Archie Shepp & the New York Contemporary 5 - Bill Dixon 7-Tette/08 - Alternate Take of Section III.flac
CRC32 hash (test run) : D266E5BA
CRC32 hash : D266E5BA
CRC32 hash (skip zero) : 075895A5
AccurateRip signature : 14866CF3
->Track not present in AccurateRip database.
Statistics
Read error : 0
Skipped (treated as error) : 0
Edge jitter error (maybe fixed) : 0
Atom jitter error (maybe fixed) : 0
Drift error (maybe fixed) : 0
Dropped bytes error (maybe fixed) : 0
Duplicated bytes error (maybe fixed) : 0
Inconsistency in error sectors : 0
Track 09
Filename : /Users/micahgilbert/Music/iTunes/iTunes Media/Music/Archie Shepp & the New York Contemporary 5 - Bill Dixon 7-Tette/09 - Alternate Study of Section III.flac
CRC32 hash (test run) : F6E39DEA
CRC32 hash : F6E39DEA
CRC32 hash (skip zero) : 0B3DD6C6
AccurateRip signature : 4024F849
->Track not present in AccurateRip database.
Statistics
Read error : 0
Skipped (treated as error) : 0
Edge jitter error (maybe fixed) : 0
Atom jitter error (maybe fixed) : 0
Drift error (maybe fixed) : 0
Dropped bytes error (maybe fixed) : 0
Duplicated bytes error (maybe fixed) : 0
Inconsistency in error sectors : 0
Track 10
Filename : /Users/micahgilbert/Music/iTunes/iTunes Media/Music/Archie Shepp & the New York Contemporary 5 - Bill Dixon 7-Tette/10 - Where the Poppies Bloom (Where Poppies Blow).flac
CRC32 hash (test run) : C6BB6379
CRC32 hash : C6BB6379
CRC32 hash (skip zero) : 8F1D931A
AccurateRip signature : 068BEF9B
->Track not present in AccurateRip database.
Statistics
Read error : 0
Skipped (treated as error) : 0
Edge jitter error (maybe fixed) : 0
Atom jitter error (maybe fixed) : 0
Drift error (maybe fixed) : 0
Dropped bytes error (maybe fixed) : 0
Duplicated bytes error (maybe fixed) : 0
Inconsistency in error sectors : 0
Track 11
Filename : /Users/micahgilbert/Music/iTunes/iTunes Media/Music/Archie Shepp & the New York Contemporary 5 - Bill Dixon 7-Tette/11 - Like a Blessed Baby Lamb.flac
CRC32 hash (test run) : 5E0E52F0
CRC32 hash : 5E0E52F0
CRC32 hash (skip zero) : 626BB5A4
AccurateRip signature : 08AB8F10
->Track not present in AccurateRip database.
Statistics
Read error : 0
Skipped (treated as error) : 0
Edge jitter error (maybe fixed) : 0
Atom jitter error (maybe fixed) : 0
Drift error (maybe fixed) : 0
Dropped bytes error (maybe fixed) : 0
Duplicated bytes error (maybe fixed) : 0
Inconsistency in error sectors : 0
Track 12
Filename : /Users/micahgilbert/Music/iTunes/iTunes Media/Music/Archie Shepp & the New York Contemporary 5 - Bill Dixon 7-Tette/12 - Consequences.flac
CRC32 hash (test run) : B795D212
CRC32 hash : B795D212
CRC32 hash (skip zero) : 89AF25D0
AccurateRip signature : 5462245A
->Track not present in AccurateRip database.
Statistics
Read error : 0
Skipped (treated as error) : 0
Edge jitter error (maybe fixed) : 0
Atom jitter error (maybe fixed) : 0
Drift error (maybe fixed) : 0
Dropped bytes error (maybe fixed) : 0
Duplicated bytes error (maybe fixed) : 0
Inconsistency in error sectors : 0
No errors occurred
End of status report
 
.cue
TITLE "Bill Dixon 7-Tette  Archie Shepp and the New York Contemporary 5"
PERFORMER "Bill Dixon 7-Tette Archie Shepp and the New York Contemporary 5"REM GENRE "Free, Avant"
REM DATE 1964
FILE "01 - Section I.wav" WAVE
TRACK 01 AUDIO
TITLE "Section I"
INDEX 01 00:00:00
FILE "02 - Section II.wav" WAVE
TRACK 02 AUDIO
TITLE "Section II"
INDEX 01 00:00:00
FILE "03 - Section III.wav" WAVE
TRACK 03 AUDIO
TITLE "Section III"
INDEX 01 00:00:00
FILE "04 - Section IV.wav" WAVE
TRACK 04 AUDIO
TITLE "Section IV"
INDEX 01 00:00:00
FILE "05 - Section V.wav" WAVE
TRACK 05 AUDIO
TITLE "Section V"
INDEX 01 00:00:00
FILE "06 - Coda.wav" WAVE
TRACK 06 AUDIO
TITLE "Coda"
INDEX 01 00:00:00
FILE "07 - The 12th December.wav" WAVE
TRACK 07 AUDIO
TITLE "The 12th December"
INDEX 01 00:00:00
FILE "08 - Alternate Take of Section III.wav" WAVE
TRACK 08 AUDIO
TITLE "Alternate Take of Section III"
INDEX 01 00:00:00
FILE "09 - Alternate Study of Section III.wav" WAVE
TRACK 09 AUDIO
TITLE "Alternate Study of Section III"
INDEX 01 00:00:00
FILE "10 - Where the Poppies Bloom (Where Poppies Blow).wav" WAVE
TRACK 10 AUDIO
TITLE "Where the Poppies Bloom (Where Poppies Blow)"
INDEX 01 00:00:00
FILE "11 - Like a Blessed Baby Lamb.wav" WAVE
TRACK 11 AUDIO
TITLE "Like a Blessed Baby Lamb"
INDEX 01 00:00:00
FILE "12 - Consequences.wav" WAVE
TRACK 12 AUDIO
TITLE "Consequences"
INDEX 01 00:00:00

другие релизы
Any questions -> support@pro-jazz.com. По всем вопросам пишите -> support@pro-jazz.com
00:36
195
Нет комментариев. Ваш будет первым!