Поиск

(Jazz) Astor Piazzolla - The Tango Way - The Classic Way (2CD) - 2002, APE (image+.cue), lossless

Треклист:
Astor Piazzolla - The Tango Way - The Classic Way (2CD)
Жанр: Jazz
Год выпуска диска: 2002
Аудио кодек: APE
Тип рипа: image+.cue
Битрейт аудио: lossless
Трэклист:
CD1:
1. Lo Que Vendra
2. Adios Nonino
3. Villeguita
4. Decarisimo
5. Para Lucirse
6. Marron y Azul
7. Invierno Porteno
8. Verano Porteno
9. El Desbande
10. Triunfal
11. Nonino
12. Proparense
13. Zum
14. Otono Porteno
15. Se Armo
16. Libertango
17. Adios Nonino (Bonus)
 
Отчёт EAC
Exact Audio Copy V0.99 prebeta 4 from 23. January 2008
Отчёт EAC об извлечении, выполненном 24. августа 2008, 22:29
Astor Piazzolla / The Tango Way - The Classic Way (CD1)
Дисковод: TEAC CD-W552G Adapter: 3 ID: 1
Режим чтения : Достоверность
Использование точного потока : Да
Отключение кэша аудио : Да
Использование указателей C2 : Нет
Коррекция смещения при чтении : 6
Способность читать области Lead-in и Lead-out : Нет
Заполнение пропущенных сэмплов тишиной : Да
Удаление блоков с тишиной в начале и конце : Нет
При вычислениях CRC использовались нулевые сэмплы : Нет
Интерфейс : Установленный внешний ASPI-интерфейс
Выходной формат : Внутренние WAV-операции
Формат сэмплов : 44.100 Гц; 16 бит; стерео
TOC извлечённого CD
Трек | Старт | Длительность | Начальный сектор | Конечный сектор
---------------------------------------------------------------------
1 | 0:00.00 | 3:29.67 | 0 | 15741
2 | 3:29.67 | 4:32.53 | 15742 | 36194
3 | 8:02.45 | 3:20.04 | 36195 | 51198
4 | 11:22.49 | 2:52.00 | 51199 | 64098
5 | 14:14.49 | 3:30.37 | 64099 | 79885
6 | 17:45.11 | 3:23.28 | 79886 | 95138
7 | 21:08.39 | 3:37.62 | 95139 | 111475
8 | 24:46.26 | 4:34.13 | 111476 | 132038
9 | 29:20.39 | 3:01.43 | 132039 | 145656
10 | 32:22.07 | 2:46.30 | 145657 | 158136
11 | 35:08.37 | 3:13.42 | 158137 | 172653
12 | 38:22.04 | 3:16.71 | 172654 | 187424
13 | 41:39.00 | 3:15.11 | 187425 | 202060
14 | 44:54.11 | 3:57.55 | 202061 | 219890
15 | 48:51.66 | 2:45.04 | 219891 | 232269
16 | 51:36.70 | 3:33.07 | 232270 | 248251
17 | 55:10.02 | 4:04.07 | 248252 | 266558
Характеристики диапазона извлечения и сообщения об ошибках
Выбранный диапазон
Имя файла W:\Музыка\Разное\Lossless\upl\Astor Piazzolla - The Tango Way - The Classic Way\Astor Piazzolla - The Tango Way - The Classic Way (CD1)\Astor Piazzolla - The Tango Way - The Classic Way (CD1).wav
Пиковый уровень 97.0 %
Качество диапазона 100.0 %
CRC копии 1F0B83FD
Копирование... OK
Ошибок не произошло
Конец отчёта
CD2:
1. El Desbande
2. Invierno Porteno
3. Adios Nonino
4. Decarisimo
5. Otono Porteno
6. Fuga y Misterio
7. Cafe 1930
8. Oblivion
9. Milonga del Angel
10. Night Club 1960
11. Nuestro Tiempo
12. Chiquilin de Bachin
13. Concierto para Bandoneon
14. Adios Nonino (Bonus)
 
Отчёт EAC
Exact Audio Copy V0.99 prebeta 4 from 23. January 2008
Отчёт EAC об извлечении, выполненном 24. августа 2008, 22:39
Various / Astor Piazzolla - The Tango Way - The Classic Way (CD2)
Дисковод: TEAC CD-W552G Adapter: 3 ID: 1
Режим чтения : Достоверность
Использование точного потока : Да
Отключение кэша аудио : Да
Использование указателей C2 : Нет
Коррекция смещения при чтении : 6
Способность читать области Lead-in и Lead-out : Нет
Заполнение пропущенных сэмплов тишиной : Да
Удаление блоков с тишиной в начале и конце : Нет
При вычислениях CRC использовались нулевые сэмплы : Нет
Интерфейс : Установленный внешний ASPI-интерфейс
Выходной формат : Внутренние WAV-операции
Формат сэмплов : 44.100 Гц; 16 бит; стерео
TOC извлечённого CD
Трек | Старт | Длительность | Начальный сектор | Конечный сектор
---------------------------------------------------------------------
1 | 0:00.00 | 2:31.67 | 0 | 11391
2 | 2:31.67 | 7:08.47 | 11392 | 43538
3 | 9:40.39 | 4:52.08 | 43539 | 65446
4 | 14:32.47 | 2:37.02 | 65447 | 77223
5 | 17:09.49 | 4:56.01 | 77224 | 99424
6 | 22:05.50 | 5:11.53 | 99425 | 122802
7 | 27:17.28 | 6:48.73 | 122803 | 153475
8 | 34:06.26 | 5:06.73 | 153476 | 176498
9 | 39:13.24 | 6:29.12 | 176499 | 205685
10 | 45:42.36 | 6:01.24 | 205686 | 232784
11 | 51:43.60 | 4:19.48 | 232785 | 252257
12 | 56:03.33 | 5:15.11 | 252258 | 275893
13 | 61:18.44 | 8:28.61 | 275894 | 314054
14 | 69:47.30 | 5:21.25 | 314055 | 338154
Характеристики диапазона извлечения и сообщения об ошибках
Выбранный диапазон
Имя файла W:\Музыка\Разное\Lossless\upl\Astor Piazzolla - The Tango Way - The Classic Way\Various - Astor Piazzolla - The Tango Way - The Classic Way (CD2)\Various - Astor Piazzolla - The Tango Way - The Classic Way (CD2).wav
Пиковый уровень 96.2 %
Качество диапазона 100.0 %
CRC копии AD19B506
Копирование... OK
Ошибок не произошло
Конец отчёта
03:22
253
Нет комментариев. Ваш будет первым!