Поиск

(Jazz) Art Ensemble of Chicago - The Spiritual - 1969, FLAC (image + .cue), lossless

(Jazz) Art Ensemble of Chicago - The Spiritual - 1969, FLAC (image + .cue), lossless
Треклист:
Art Ensemble of Chicago - The Spiritual
Страна: USA
Жанр: Jazz
Год выпуска: 1969
Формат: FLAC (image + .cue)
Битрейт аудио: lossless
Продолжительность: 38:35
Malachi Favors banjo, bass, bass (fender), percussion, sitar
Lester Bowie bass drum, flugelhorn, horns, trumpet
Joseph Jarman clarinet, flute, guitar, harpsichord, oboe, percussion, piano, saxophone (alto, soprano, tenor)
Roscoe Mitchell clarinet, flute, percussion, bells, saxophone (alto, soprano, bass), whistle
1 Toro (8:25)
2 Lori Song (3:53)
3 That The Evening Sky Fell Through The Glass Wall And We Stood Alone Somewhere? (5:58)
4 The Spiritual (20:07)
Recorded on 26 June 1969 at Polydor Studios (Dames II) in Paris
 
EAC Report
Exact Audio Copy V0.99 prebeta 4 from 23. January 2008
EAC extraction logfile from 10. April 2008, 22:14
Art Ensemble of Chicago / The Spiritual
Used drive : MATSHITADVD-RAM UJ-840S Adapter: 1 ID: 0
Read mode : Secure
Utilize accurate stream : Yes
Defeat audio cache : Yes
Make use of C2 pointers : No
Read offset correction : 102
Overread into Lead-In and Lead-Out : No
Fill up missing offset samples with silence : Yes
Delete leading and trailing silent blocks : No
Null samples used in CRC calculations : No
Used interface : Installed external ASPI interface
Used output format : User Defined Encoder
Selected bitrate : 1024 kBit/s
Quality : High
Add ID3 tag : No
Command line compressor : C:\Program Files\Exact Audio Copy\FLAC\FLAC.EXE
Additional command line options : -6 -V -T "ARTIST=%a" -T "TITLE=%t" -T "ALBUM=%g" -T "DATE=%y" -T "TRACKNUMBER=%n" -T "GENRE=%m" -T "COMMENT=%e" %s -o %d
TOC of the extracted CD
Track | Start | Length | Start sector | End sector
---------------------------------------------------------
1 | 0:00.00 | 8:30.22 | 0 | 38271
2 | 8:30.22 | 3:58.25 | 38272 | 56146
3 | 12:28.47 | 6:00.43 | 56147 | 83189
4 | 18:29.15 | 20:06.10 | 83190 | 173649
Range status and errors
Selected range
Filename F:\u\Art Ensemble of Chicago\Art Ensemble of Chicago - The Spiritual.wav
Peak level 98.8 %
Range quality 100.0 %
Copy CRC 75B68F96
Copy OK
No errors occurred
AccurateRip summary
Track 1 not present in database
Track 2 not present in database
Track 3 not present in database
Track 4 not present in database
None of the tracks are present in the AccurateRip database
End of status report
Приватный:
Нет (DHT включён)
Размер:
229.89 Мб (241,060,260 байт) » файлов: 5
Участники:
0 раздают, 0 качают (0 участников всего)
Внешние участники:
5 раздают, 1 качают (6 участников всего) [ Обновить ]
No seeders - write a personal message to user M0p94ok. Нет сидеров - пишите личное сообщение пользователю M0p94ok.
00:27
48
Нет комментариев. Ваш будет первым!