Поиск

(Jazz) Art Ensemble of Chicago - Non-Cognitive Aspects Of The City - 2006, FLAC (image + .cue), lossless

(Jazz) Art Ensemble of Chicago - Non-Cognitive Aspects Of The City - 2006, FLAC (image + .cue), lossless
Треклист:
Art Ensemble of Chicago - Non-Cognitive Aspects Of The City
Страна: USA
Жанр: Jazz
Год выпуска: 2006
Формат: FLAC (image + .cue)
Битрейт аудио: lossless
Продолжительность: 2:06:43
Disc 1
Song For My Sister
The Morning Mist
Song For Charles
On The Mountain
Big Red Peaches
Odwalla
Disc 2
Erika
Malachi
The J Song
Red Sand Green Water
Slow Tenor And Bass
Odwalla
 
EAC Report (Disc 1)
Exact Audio Copy V0.99 prebeta 4 from 23. January 2008
EAC extraction logfile from 13. April 2008, 23:09
Art Ensemble of Chicago / Non-Cognitive Aspects Of The City (Disc 1)
Used drive : MATSHITADVD-RAM UJ-840S Adapter: 1 ID: 0
Read mode : Secure
Utilize accurate stream : Yes
Defeat audio cache : Yes
Make use of C2 pointers : No
Read offset correction : 102
Overread into Lead-In and Lead-Out : No
Fill up missing offset samples with silence : Yes
Delete leading and trailing silent blocks : No
Null samples used in CRC calculations : No
Used interface : Installed external ASPI interface
Used output format : User Defined Encoder
Selected bitrate : 1024 kBit/s
Quality : High
Add ID3 tag : No
Command line compressor : C:\Program Files\Exact Audio Copy\FLAC\FLAC.EXE
Additional command line options : -6 -V -T "ARTIST=%a" -T "TITLE=%t" -T "ALBUM=%g" -T "DATE=%y" -T "TRACKNUMBER=%n" -T "GENRE=%m" -T "COMMENT=%e" %s -o %d
TOC of the extracted CD
Track | Start | Length | Start sector | End sector
---------------------------------------------------------
1 | 0:00.00 | 17:00.46 | 0 | 76545
2 | 17:00.46 | 6:47.64 | 76546 | 107134
3 | 23:48.35 | 8:52.08 | 107135 | 147042
4 | 32:40.43 | 19:25.27 | 147043 | 234444
5 | 52:05.70 | 7:34.02 | 234445 | 268496
6 | 59:39.72 | 5:21.26 | 268497 | 292597
Range status and errors
Selected range
Filename F:\z\Art Ensemble of Chicago - Non-Cognitive Aspects Of The City (Disc 1).wav
Peak level 96.6 %
Range quality 100.0 %
Copy CRC FC2A86A8
Copy OK
No errors occurred
AccurateRip summary
Track 1 accurately ripped (confidence 1) [44715FE6]
Track 2 accurately ripped (confidence 1) [DD3D63B7]
Track 3 accurately ripped (confidence 1) [978598B5]
Track 4 accurately ripped (confidence 1) [D1369CF4]
Track 5 accurately ripped (confidence 1) [2B41077B]
Track 6 accurately ripped (confidence 1) [B95E1D65]
All tracks accurately ripped
End of status report
 
EAC Report (Disc 2)
Exact Audio Copy V0.99 prebeta 4 from 23. January 2008
EAC extraction logfile from 13. April 2008, 22:45
Art Ensemble of Chicago / Non-Cognitive Aspects Of The City (Disc 2)
Used drive : MATSHITADVD-RAM UJ-840S Adapter: 1 ID: 0
Read mode : Secure
Utilize accurate stream : Yes
Defeat audio cache : Yes
Make use of C2 pointers : No
Read offset correction : 102
Overread into Lead-In and Lead-Out : No
Fill up missing offset samples with silence : Yes
Delete leading and trailing silent blocks : No
Null samples used in CRC calculations : No
Used interface : Installed external ASPI interface
Used output format : User Defined Encoder
Selected bitrate : 1024 kBit/s
Quality : High
Add ID3 tag : No
Command line compressor : C:\Program Files\Exact Audio Copy\FLAC\FLAC.EXE
Additional command line options : -6 -V -T "ARTIST=%a" -T "TITLE=%t" -T "ALBUM=%g" -T "DATE=%y" -T "TRACKNUMBER=%n" -T "GENRE=%m" -T "COMMENT=%e" %s -o %d
TOC of the extracted CD
Track | Start | Length | Start sector | End sector
---------------------------------------------------------
1 | 0:00.00 | 19:59.49 | 0 | 89973
2 | 19:59.49 | 9:01.50 | 89974 | 130598
3 | 29:01.24 | 11:46.67 | 130599 | 183615
4 | 40:48.16 | 14:28.02 | 183616 | 248717
5 | 55:16.18 | 2:27.15 | 248718 | 259757
6 | 57:43.33 | 3:59.36 | 259758 | 277718
Range status and errors
Selected range
Filename F:\z\Art Ensemble of Chicago - Non-Cognitive Aspects Of The City (Disc 2).wav
Peak level 96.6 %
Range quality 100.0 %
Copy CRC DC964E91
Copy OK
No errors occurred
AccurateRip summary
Track 1 accurately ripped (confidence 1) [715FC5E0]
Track 2 accurately ripped (confidence 1) [75B57E6A]
Track 3 accurately ripped (confidence 1) [2307FB53]
Track 4 accurately ripped (confidence 1) [6BC837EA]
Track 5 accurately ripped (confidence 1) [CE4AA63E]
Track 6 accurately ripped (confidence 1) [75AD0E80]
All tracks accurately ripped
End of status report
Приватный:
Нет (DHT включён)
Размер:
736.24 Мб (772,008,003 байт) » файлов: 10
Участники:
0 раздают, 0 качают (0 участников всего)
Внешние участники:
3 раздают, 1 качают (4 участников всего) [ Обновить ]
Есть вопросы - пишите личное сообщение пользователю M0p94ok.
01:22
58
Нет комментариев. Ваш будет первым!