Поиск

(Jazz) Art Ensemble of Chicago - Kabalaba - 1974, FLAC (image + .cue), lossless

(Jazz) Art Ensemble of Chicago - Kabalaba - 1974, FLAC (image + .cue), lossless
Треклист:
Art Ensemble of Chicago - Kabalaba
Страна: USA
Жанр: Jazz
Год выпуска: 1974
Формат: FLAC (image + .cue)
Битрейт аудио: lossless
Продолжительность: 43:27
Kabalaba - Bees
Interlude
Kaba Song
Interlude
Theme for SCO
Duo
Sun Precondition One
Interlude
Improvization A²
Mal's Delight
Kabalaba Speaks
Recorded July 1974 live at Montreux International Jazz Festival.
 
EAC Report
Exact Audio Copy V0.99 prebeta 4 from 23. January 2008
EAC extraction logfile from 12. April 2008, 21:39
Art Ensemble of Chicago / Kabalaba
Used drive : MATSHITADVD-RAM UJ-840S Adapter: 1 ID: 0
Read mode : Secure
Utilize accurate stream : Yes
Defeat audio cache : Yes
Make use of C2 pointers : No
Read offset correction : 102
Overread into Lead-In and Lead-Out : No
Fill up missing offset samples with silence : Yes
Delete leading and trailing silent blocks : No
Null samples used in CRC calculations : No
Used interface : Installed external ASPI interface
Used output format : User Defined Encoder
Selected bitrate : 1024 kBit/s
Quality : High
Add ID3 tag : No
Command line compressor : C:\Program Files\Exact Audio Copy\FLAC\FLAC.EXE
Additional command line options : -6 -V -T "ARTIST=%a" -T "TITLE=%t" -T "ALBUM=%g" -T "DATE=%y" -T "TRACKNUMBER=%n" -T "GENRE=%m" -T "COMMENT=%e" %s -o %d
TOC of the extracted CD
Track | Start | Length | Start sector | End sector
---------------------------------------------------------
1 | 0:00.00 | 3:16.35 | 0 | 14734
2 | 3:16.35 | 1:44.74 | 14735 | 22608
3 | 5:01.34 | 3:41.34 | 22609 | 39217
4 | 8:42.68 | 1:14.21 | 39218 | 44788
5 | 9:57.14 | 10:38.53 | 44789 | 92691
6 | 20:35.67 | 1:48.20 | 92692 | 100811
7 | 22:24.12 | 5:26.57 | 100812 | 125318
8 | 27:50.69 | 1:52.18 | 125319 | 133736
9 | 29:43.12 | 6:04.60 | 133737 | 161096
10 | 35:47.72 | 3:39.49 | 161097 | 177570
11 | 39:27.46 | 3:59.06 | 177571 | 195501
Range status and errors
Selected range
Filename F:\u\Art Ensemble of Chicago\Art Ensemble of Chicago - Kabalaba.wav
Peak level 100.0 %
Range quality 100.0 %
Copy CRC 064DB484
Copy OK
No errors occurred
AccurateRip summary
Track 1 not present in database
Track 2 not present in database
Track 3 not present in database
Track 4 not present in database
Track 5 not present in database
Track 6 not present in database
Track 7 not present in database
Track 8 not present in database
Track 9 not present in database
Track 10 not present in database
Track 11 not present in database
None of the tracks are present in the AccurateRip database
End of status report
Приватный:
Нет (DHT включён)
Размер:
255.46 Мб (267,865,266 байт) » файлов: 6
Участники:
0 раздают, 0 качают (0 участников всего)
Внешние участники:
2 раздают, 1 качают (3 участников всего) [ Обновить ]
Есть вопросы - пишите личное сообщение пользователю M0p94ok.
00:35
43
Нет комментариев. Ваш будет первым!