Поиск

(J-Pop, Lounge, Bossa Nova, Easy Listening) Pink Martini & Saori Yuki - 1969 - 2011, FLAC (tracks+.cue), lossless

(J-Pop, Lounge, Bossa Nova, Easy Listening) Pink Martini & Saori Yuki - 1969 - 2011, FLAC (tracks+.cue), lossless
Треклист:
Pink Martini & Saori Yuki - 1969
Жанр: J-Pop, Lounge, Bossa Nova, Easy Listening
Страна-производитель диска: UK
Год издания диска: 2011
Издатель (лейбл): EMI
Аудиокодек: FLAC (*.flac)
Тип рипа: tracks+.cue
Битрейт аудио: lossless
Продолжительность: 00:40:53
Источник (релизер): what.cd, by mudvslug
Наличие сканов в содержимом раздачи: нет
Треклист:
01. Yuuzuki (Evening Moon)
02. Mayonaka no Bossa Nova (Midnight Bossa Nova)
03. Du soleil plein les yeux (Eyes Full Of Sun)
04. Puff, The Magic Dragon
05. Ii janaino Shiawase naraba (It’s Okay If I’m Happy)
06. Blue Light Yokohama
07. Yoake no Scat (Melody For A New Dawn)
08. Mas Que Nada
09. Is That All There Is?
10. Watashi mo Anata to Naite Ii? (Consolation)
11. Wasuretainoni (I Want To Forget You, But...)
12. Kisetsu no Ashioto (Footsteps Of The Seasons) [bonus track]
 
Лог создания рипа
Exact Audio Copy V1.0 beta 2 from 29. April 2011
EAC extraction logfile from 19. October 2011, 18:01
Pink Martini & Saori Yuki / 1969
Used drive : Optiarc DVD RW AD-7590A Adapter: 1 ID: 0
Read mode : Secure
Utilize accurate stream : Yes
Defeat audio cache : Yes
Make use of C2 pointers : No
Read offset correction : 48
Overread into Lead-In and Lead-Out : No
Fill up missing offset samples with silence : Yes
Delete leading and trailing silent blocks : No
Null samples used in CRC calculations : Yes
Used interface : Native Win32 interface for Win NT & 2000
Gap handling : Appended to previous track
Used output format : User Defined Encoder
Selected bitrate : 1024 kBit/s
Quality : High
Add ID3 tag : No
Command line compressor : C:\Program Files (x86)\Exact Audio Copy\Flac\flac.exe
Additional command line options : -8 -V -T "ARTIST=%artist%" -T "TITLE=%title%" -T "ALBUM=%albumtitle%" -T "DATE=%year%" -T "TRACKNUMBER=%tracknr%" -T "GENRE=%genre%" -T "PERFORMER=%albuminterpret%" -T "COMPOSER=%composer%" %haslyrics%--tag-from-file=LYRICS
TOC of the extracted CD
Track | Start | Length | Start sector | End sector
---------------------------------------------------------
1 | 0:00.00 | 3:18.56 | 0 | 14905
2 | 3:18.56 | 3:18.27 | 14906 | 29782
3 | 6:37.08 | 3:29.29 | 29783 | 45486
4 | 10:06.37 | 3:51.38 | 45487 | 62849
5 | 13:58.00 | 3:35.74 | 62850 | 79048
6 | 17:33.74 | 2:51.67 | 79049 | 91940
7 | 20:25.66 | 3:17.53 | 91941 | 106768
8 | 23:43.44 | 2:37.03 | 106769 | 118546
9 | 26:20.47 | 4:13.26 | 118547 | 137547
10 | 30:33.73 | 3:36.12 | 137548 | 153759
11 | 34:10.10 | 2:55.07 | 153760 | 166891
12 | 37:05.17 | 3:46.49 | 166892 | 183890
Track 1
Filename C:\EAC rips\Pink Martini & Saori Yuki - 1969 (2011) - FLAC\01 - Yuuzuki (Evening Moon).wav
Pre-gap length 0:00:02.00
Peak level 98.8 %
Extraction speed 2.6 X
Track quality 100.0 %
Test CRC 788E4391
Copy CRC 788E4391
Track not present in AccurateRip database
Copy OK
Track 2
Filename C:\EAC rips\Pink Martini & Saori Yuki - 1969 (2011) - FLAC\02 - Mayonaka No Bossa Nova (Midnight Bossa Nova).wav
Pre-gap length 0:00:00.40
Peak level 100.0 %
Extraction speed 2.8 X
Track quality 100.0 %
Test CRC 19CCBFCF
Copy CRC 19CCBFCF
Track not present in AccurateRip database
Copy OK
Track 3
Filename C:\EAC rips\Pink Martini & Saori Yuki - 1969 (2011) - FLAC\03 - Du Soleil Plein Les Yeux (Eyes Full of Sun).wav
Pre-gap length 0:00:03.40
Peak level 98.8 %
Extraction speed 3.0 X
Track quality 100.0 %
Test CRC BB23DC73
Copy CRC BB23DC73
Track not present in AccurateRip database
Copy OK
Track 4
Filename C:\EAC rips\Pink Martini & Saori Yuki - 1969 (2011) - FLAC\04 - Puff, the Magic Dragon.wav
Pre-gap length 0:00:01.66
Peak level 98.8 %
Extraction speed 3.4 X
Track quality 100.0 %
Test CRC 4AFA6C0D
Copy CRC 4AFA6C0D
Track not present in AccurateRip database
Copy OK
Track 5
Filename C:\EAC rips\Pink Martini & Saori Yuki - 1969 (2011) - FLAC\05 - Ii Janaino Shiawase Naraba (It's Okay If I'm Happy).wav
Pre-gap length 0:00:02.00
Peak level 98.8 %
Extraction speed 3.5 X
Track quality 100.0 %
Test CRC 7E753B43
Copy CRC 7E753B43
Track not present in AccurateRip database
Copy OK
Track 6
Filename C:\EAC rips\Pink Martini & Saori Yuki - 1969 (2011) - FLAC\06 - Blue Light Yokohama.wav
Pre-gap length 0:00:01.66
Peak level 98.8 %
Extraction speed 3.6 X
Track quality 100.0 %
Test CRC BA4C6C84
Copy CRC BA4C6C84
Track not present in AccurateRip database
Copy OK
Track 7
Filename C:\EAC rips\Pink Martini & Saori Yuki - 1969 (2011) - FLAC\07 - Yoake No Scat (Melody For a New Dawn).wav
Pre-gap length 0:00:01.66
Peak level 98.8 %
Extraction speed 3.9 X
Track quality 100.0 %
Test CRC FA76F93D
Copy CRC FA76F93D
Track not present in AccurateRip database
Copy OK
Track 8
Filename C:\EAC rips\Pink Martini & Saori Yuki - 1969 (2011) - FLAC\08 - Mas Que Nada.wav
Pre-gap length 0:00:01.66
Peak level 100.0 %
Extraction speed 2.9 X
Track quality 99.9 %
Test CRC E6D380F0
Copy CRC E6D380F0
Track not present in AccurateRip database
Copy OK
Track 9
Filename C:\EAC rips\Pink Martini & Saori Yuki - 1969 (2011) - FLAC\09 - Is That All There Is.wav
Pre-gap length 0:00:02.86
Peak level 98.8 %
Extraction speed 4.2 X
Track quality 100.0 %
Test CRC A82F7B2C
Copy CRC A82F7B2C
Track not present in AccurateRip database
Copy OK
Track 10
Filename C:\EAC rips\Pink Martini & Saori Yuki - 1969 (2011) - FLAC\10 - Watashi Mo Anata To Naite Ii (Consolation).wav
Pre-gap length 0:00:01.66
Peak level 98.8 %
Extraction speed 4.3 X
Track quality 100.0 %
Test CRC 432698A0
Copy CRC 432698A0
Track not present in AccurateRip database
Copy OK
Track 11
Filename C:\EAC rips\Pink Martini & Saori Yuki - 1969 (2011) - FLAC\11 - Wasuretainoni (I Want to Forget You, But ...).wav
Pre-gap length 0:00:02.00
Peak level 98.8 %
Extraction speed 4.3 X
Track quality 100.0 %
Test CRC 2E003515
Copy CRC 2E003515
Track not present in AccurateRip database
Copy OK
Track 12
Filename C:\EAC rips\Pink Martini & Saori Yuki - 1969 (2011) - FLAC\12 - Kisetsu No Ashioto (Footsteps of the Seasons).wav
Pre-gap length 0:00:02.00
Peak level 98.8 %
Extraction speed 4.6 X
Track quality 100.0 %
Test CRC 4C33DFAA
Copy CRC 4C33DFAA
Track not present in AccurateRip database
Copy OK
None of the tracks are present in the AccurateRip database
No errors occurred
End of status report
==== Log checksum DDAFF8C0D883F120EB7109FCA5E067387AAD82ACA1050912333FA4164DB3682C ====
 
Содержание индексной карты (.CUE)
REM GENRE Pop
REM DATE 2011
REM DISCID 8D09930C
REM COMMENT "ExactAudioCopy v1.0b2"
PERFORMER "Pink Martini & Saori Yuki"
TITLE "1969"
FILE "01 - Yuuzuki (Evening Moon).wav" WAVE
TRACK 01 AUDIO
TITLE "Yuuzuki (Evening Moon)"
PERFORMER "Pink Martini & Saori Yuki"
ISRC JPTO01100807
INDEX 01 00:00:00
TRACK 02 AUDIO
TITLE "Mayonaka No Bossa Nova (Midnight Bossa Nova)"
PERFORMER "Pink Martini & Saori Yuki"
ISRC JPTO01100803
INDEX 00 03:18:26
FILE "02 - Mayonaka No Bossa Nova (Midnight Bossa Nova).wav" WAVE
INDEX 01 00:00:00
TRACK 03 AUDIO
TITLE "Du Soleil Plein Les Yeux (Eyes Full of Sun)"
PERFORMER "Pink Martini & Saori Yuki"
ISRC JPTO01100804
INDEX 00 03:14:72
FILE "03 - Du Soleil Plein Les Yeux (Eyes Full of Sun).wav" WAVE
INDEX 01 00:00:00
TRACK 04 AUDIO
TITLE "Puff, the Magic Dragon"
PERFORMER "Pink Martini & Saori Yuki"
ISRC JPTO01100805
INDEX 00 03:27:54
FILE "04 - Puff, the Magic Dragon.wav" WAVE
INDEX 01 00:00:00
TRACK 05 AUDIO
TITLE "Ii Janaino Shiawase Naraba (It's Okay If I'm Happy)"
PERFORMER "Pink Martini & Saori Yuki"
ISRC JPTO01100806
INDEX 00 03:49:38
FILE "05 - Ii Janaino Shiawase Naraba (It's Okay If I'm Happy).wav" WAVE
INDEX 01 00:00:00
TRACK 06 AUDIO
TITLE "Blue Light Yokohama"
PERFORMER "Pink Martini & Saori Yuki"
ISRC JPTO01100802
INDEX 00 03:34:24
FILE "06 - Blue Light Yokohama.wav" WAVE
INDEX 01 00:00:00
TRACK 07 AUDIO
TITLE "Yoake No Scat (Melody For a New Dawn)"
PERFORMER "Pink Martini & Saori Yuki"
ISRC JPTO01100808
INDEX 00 02:50:17
FILE "07 - Yoake No Scat (Melody For a New Dawn).wav" WAVE
INDEX 01 00:00:00
TRACK 08 AUDIO
TITLE "Mas Que Nada"
PERFORMER "Pink Martini & Saori Yuki"
ISRC JPTO01100809
INDEX 00 03:16:03
FILE "08 - Mas Que Nada.wav" WAVE
INDEX 01 00:00:00
TRACK 09 AUDIO
TITLE "Is That All There Is?"
PERFORMER "Pink Martini & Saori Yuki"
ISRC JPTO01100810
INDEX 00 02:34:13
FILE "09 - Is That All There Is.wav" WAVE
INDEX 01 00:00:00
TRACK 10 AUDIO
TITLE "Watashi Mo Anata To Naite Ii? (Consolation)"
PERFORMER "Pink Martini & Saori Yuki"
ISRC JPTO01100811
INDEX 00 04:11:51
FILE "10 - Watashi Mo Anata To Naite Ii (Consolation).wav" WAVE
INDEX 01 00:00:00
TRACK 11 AUDIO
TITLE "Wasuretainoni (I Want to Forget You, But ...)"
PERFORMER "Pink Martini & Saori Yuki"
ISRC JPTO01100812
INDEX 00 03:34:12
FILE "11 - Wasuretainoni (I Want to Forget You, But ...).wav" WAVE
INDEX 01 00:00:00
TRACK 12 AUDIO
TITLE "Kisetsu No Ashioto (Footsteps of the Seasons)"
PERFORMER "Pink Martini & Saori Yuki"
ISRC JPTO01100813
INDEX 00 02:53:07
FILE "12 - Kisetsu No Ashioto (Footsteps of the Seasons).wav" WAVE
INDEX 01 00:00:00
 
Лог проверки качества
-----------------------
DON'T MODIFY THIS FILE
-----------------------
PERFORMER: auCDtect Task Manager, ver. 1.5.1RC4 build 1.5.1.5
Copyright (c) 2008-2010 y-soft. All rights reserved
http://y-soft.org
ANALYZER: auCDtect: CD records authenticity detector, version 0.8.2
Copyright (c) 2004 Oleg Berngardt. All rights reserved.
Copyright (c) 2004 Alexander Djourik. All rights reserved.
FILE: 12 - Kisetsu No Ashioto (Footsteps of the Seasons).flac
Size: 22426012 Hash: 568B4FD126ABCFFD7F996FB9213A831B Accuracy: -m0
Conclusion: CDDA 100%
Signature: DC72C47565C1401E8207AC360C25B06223597EBD
FILE: 11 - Wasuretainoni (I Want to Forget You, But ...).flac
Size: 16347612 Hash: 86DE5237D19EE81299E3A39D8E1DE9D5 Accuracy: -m0
Conclusion: CDDA 100%
Signature: B36502FB4CC856950BEBF43B1581C1938E43833D
FILE: 10 - Watashi Mo Anata To Naite Ii (Consolation).flac
Size: 23983384 Hash: 12F302126236CAA5E78A042E567A9CD2 Accuracy: -m0
Conclusion: CDDA 100%
Signature: B229BB9B88DA9B5B3DA418114DB662779BB56691
FILE: 09 - Is That All There Is.flac
Size: 25748599 Hash: AB63CC87C97189A299BC9A284AC00D69 Accuracy: -m0
Conclusion: CDDA 100%
Signature: E6FD842F845571C43DD34D54C8C4EB51CFFA1098
FILE: 08 - Mas Que Nada.flac
Size: 18770415 Hash: A388FBC2BD899D9ADBA5D0A651161F54 Accuracy: -m0
Conclusion: CDDA 100%
Signature: FA63C26DD291BC24775EE73BC0F84697B48342D4
FILE: 07 - Yoake No Scat (Melody For a New Dawn).flac
Size: 22332210 Hash: A49F15367BAEE08BFBB2A1D2C7FAE337 Accuracy: -m0
Conclusion: CDDA 100%
Signature: 1873D192E4B494144D36241B5009D0D554825EA4
FILE: 06 - Blue Light Yokohama.flac
Size: 19445596 Hash: 2D1B2401E096D1F6B4F7C2AF26F08D29 Accuracy: -m0
Conclusion: CDDA 99%
Signature: 66D8B04E1C60F2E9A684183DB1F535EA7C1767C3
FILE: 05 - Ii Janaino Shiawase Naraba (It's Okay If I'm Happy).flac
Size: 20406933 Hash: FB0D5C2EA5DC98FAFAC916B18E2DDDBF Accuracy: -m0
Conclusion: CDDA 100%
Signature: 8E5BDCEE039F3E18710882496FC08F36789BE3A6
FILE: 04 - Puff, the Magic Dragon.flac
Size: 23629435 Hash: C05DA98705E60D7A4B6C8CC212B61CD6 Accuracy: -m0
Conclusion: CDDA 99%
Signature: 26799088169EF61D2127145D592FA6F79811EBFB
FILE: 03 - Du Soleil Plein Les Yeux (Eyes Full of Sun).flac
Size: 22958553 Hash: 56CC84A69F9946E5857404D90FB6F445 Accuracy: -m0
Conclusion: CDDA 100%
Signature: 8A79A6CD314D44007F627304314FF768B2F70503
FILE: 02 - Mayonaka No Bossa Nova (Midnight Bossa Nova).flac
Size: 22316015 Hash: 339967D739D7B0669F0B15FE60922900 Accuracy: -m0
Conclusion: CDDA 100%
Signature: B1683E72EC8787511567B8F49413CA4356085E4F
FILE: 01 - Yuuzuki (Evening Moon).flac
Size: 21840131 Hash: 019E79582B02ED8E2CA7AB942240CAE5 Accuracy: -m0
Conclusion: CDDA 99%
Signature: 460D8169AD4AA81A97F201982070ECEB89067800
 
Об альбоме:
Widely considered to be the “Barbara Streisand of Japan”, Saori Yuki released her debut album in Japan in 1969 and has gone on to make over 30 albums in her 42 year-career. Yuki discovered Pink Martini after the band covered her song “Taya Tan” for their 2007 album Hey Eugene! Most recently, Yuki sang a verse of “White Christmas” in Japanese for the band’s hit 2010 holiday album Joy To The World.
In honor of the year of her debut release, Saori Yuki partnered with Pink Martini and producer Thomas M. Lauderdale to create a loving tribute to the music released in 1969. Featuring Japanese pop hits alongside internationally recognized tunes like Jorge Ben's "Mas que nada" and "Puff the Magic Dragon", "1969" is a brilliant collaboration, with Thomas M. Lauderdale's magical arrangements, Pink Martini's stellar musicianship, and Saori Yuki's soaring vocals.
Трибьют первого альбома японской певицы Saori Yuki, вышедшего в 1969 году, от Pink Martini, которые записали его как раз вместе с Saori, которая заинтересовалась этой командой после того как они сделали кавер на “Taya Tan” в своём альбоме "Hey Eugene!", и спела у них в “White Christmas” на рождественском альбоме, ну а так как им уже давно очень нравился её первый альбом, и Саори после японской катастрофы поехала пожить в США - было решено сделать этот альбом (by xorosho.com).
23:31
399
Нет комментариев. Ваш будет первым!