Поиск

(Instrumental/Tango Nuevo) Pablo Ziegler - Bajo Cero - 2004, FLAC (image+.cue), lossless

(Instrumental/Tango Nuevo) Pablo Ziegler - Bajo Cero - 2004, FLAC (image+.cue), lossless
Треклист:
Pablo Ziegler - Bajo Cero
Жанр: Instrumental/New tango
Год выпуска диска: 2004
Производитель диска: Россия
Аудио кодек: FLAC
Тип рипа: image+.cue
Битрейт аудио: lossless
Продолжительность: 10 Композиций
Трэклист:
01 - La Rayuela
02 - Flor De Limo
03 - Chim Chim
04 - La Fundicion
05 - Milonga Del Adios
06 - Bajo Cero
07 - Yuyo Verde
08 - Planufer Milonga
09 - Los Mariados
10 - Fuga Y Misteria
 
ДОП.ИНФОРМАЦИЯ:
К сожалению информацию об этом исполнителе не где не нашёл. знаю точно, что он долгое время играл вместе с Астором пьяццоллой. диск лицензионный.
 
Отчёт EAC
Exact Audio Copy V0.99 prebeta 4 from 23. January 2008
Отчёт EAC об извлечении, выполненном 27. апреля 2009, 17:52
Pablo Ziegler / Bajo Cero
Дисковод: PIONEER DVD-RW DVR-110D Adapter: 2 ID: 1
Режим чтения : Достоверность
Использование точного потока : Да
Отключение кэша аудио : Да
Использование указателей C2 : Нет
Коррекция смещения при чтении : 48
Способность читать области Lead-in и Lead-out : Нет
Заполнение пропущенных сэмплов тишиной : Да
Удаление блоков с тишиной в начале и конце : Нет
При вычислениях CRC использовались нулевые сэмплы : Нет
Интерфейс : Встроенный Win32-интерфейс для Win NT/2000
Выходной формат : Пользовательский кодировщик
Выбранный битрейт : 768 kBit/s
Качество : Высокий
Добавление ID3-тэга : Нет
Утилита сжатия : C:\Program Files\Exact Audio Copy\FLAC\FLAC.EXE
Дополнительные параметры : -6 -V -T "ARTIST=%a" -T "TITLE=%t" -T "ALBUM=%g" -T "DATE=%y" -T "TRACKNUMBER=%n" -T "GENRE=%m" -T "COMMENT=%e" %s -o %d
TOC извлечённого CD
Трек | Старт | Длительность | Начальный сектор | Конечный сектор
---------------------------------------------------------------------
1 | 0:00.00 | 4:18.34 | 0 | 19383
2 | 4:18.34 | 4:13.32 | 19384 | 38390
3 | 8:31.66 | 7:49.57 | 38391 | 73622
4 | 16:21.48 | 6:24.62 | 73623 | 102484
5 | 22:46.35 | 8:11.56 | 102485 | 139365
6 | 30:58.16 | 7:26.32 | 139366 | 172847
7 | 38:24.48 | 4:24.23 | 172848 | 192670
8 | 42:48.71 | 7:00.09 | 192671 | 224179
9 | 49:49.05 | 7:05.68 | 224180 | 256122
10 | 56:54.73 | 4:58.04 | 256123 | 278476
Характеристики диапазона извлечения и сообщения об ошибках
Выбранный диапазон
Имя файла D:\Мультимедиа\Музыка\Pablo Ziegler\Pablo Ziegler - Bajo Cero.wav
Пиковый уровень 99.3 %
Качество диапазона 100.0 %
CRC копии 2BC09BBC
Копирование... OK
Ошибок не произошло
Конец отчёта
05:59
421
Нет комментариев. Ваш будет первым!