Поиск

(Instrumental, Flamenco) Antonio Forcione - Acoustic Revenge - 1999, FLAC (image+.cue), lossless

(Instrumental, Flamenco) Antonio Forcione - Acoustic Revenge - 1999, FLAC (image+.cue), lossless
Треклист:
•Antonio Forcione - Acoustic Revenge•
Жанр: Instrumental, Flamenco
Год издания: 1999
Издатель (лейбл): Naim
Аудиокодек: FLAC (*.flac)
Тип рипа: image+.cue
Битрейт аудио: lossless
Продолжительность: 00:40:49
Источник (релизер): cosmos
Наличие сканов в содержимом раздачи: нет
Треклист:
01.Gypsy Dreams [04:57]
02.Acoustic Revenge [04:53]
03.Infanzia [04:08]
04.Primavera [04:29]
05.Anna [04:27]
06.Black Magic [04:58]
07.Enigma [03:20]
08.Easy Going [04:55]
09.Heart Beat [04:39]
 
Лог создания рипа
Exact Audio Copy V1.0 beta 1 from 15. November 2010
EAC extraction logfile from 1. March 2012, 17:28
Antonio Forcione / Acoustic Revenge
Used drive : TEAC CD-W548E Adapter: 5 ID: 0
Read mode : Secure
Utilize accurate stream : Yes
Defeat audio cache : Yes
Make use of C2 pointers : No
Read offset correction : 12
Overread into Lead-In and Lead-Out : No
Fill up missing offset samples with silence : Yes
Delete leading and trailing silent blocks : No
Null samples used in CRC calculations : Yes
Used interface : Native Win32 interface for Win NT & 2000
Used output format : User Defined Encoder
Selected bitrate : 1024 kBit/s
Quality : High
Add ID3 tag : No
Command line compressor : C:\Program Files (x86)\Exact Audio Copy\FLAC\FLAC.EXE
Additional command line options : -5 -V %s
TOC of the extracted CD
Track | Start | Length | Start sector | End sector
---------------------------------------------------------
1 | 0:00.00 | 4:57.42 | 0 | 22316
2 | 4:57.42 | 4:53.43 | 22317 | 44334
3 | 9:51.10 | 4:08.45 | 44335 | 62979
4 | 13:59.55 | 4:29.60 | 62980 | 83214
5 | 18:29.40 | 4:27.20 | 83215 | 103259
6 | 22:56.60 | 4:58.00 | 103260 | 125609
7 | 27:54.60 | 3:20.05 | 125610 | 140614
8 | 31:14.65 | 4:55.22 | 140615 | 162761
9 | 36:10.12 | 4:39.45 | 162762 | 183731
Range status and errors
Selected range
Filename D:\RIP для ФТП\Antonio Forcione - Acoustic Revenge.wav
Peak level 96.5 %
Extraction speed 0.5 X
Range quality 100.0 %
Test CRC AA057158
Copy CRC AA057158
Copy OK
No errors occurred
AccurateRip summary
Track 1 accurately ripped (confidence 3) [FDA78A0A]
Track 2 accurately ripped (confidence 3) [FC53AC11]
Track 3 accurately ripped (confidence 3) [C6C10017]
Track 4 accurately ripped (confidence 3) [3BD55AF8]
Track 5 accurately ripped (confidence 3) [70C95548]
Track 6 accurately ripped (confidence 3) [74304E38]
Track 7 accurately ripped (confidence 3) [6EF7F559]
Track 8 accurately ripped (confidence 3) [4A93CDBD]
Track 9 accurately ripped (confidence 3) [FC3FBFEC]
All tracks accurately ripped
End of status report
 
Содержание индексной карты (.CUE)
REM GENRE "New Age"
REM DISCID 81099109
REM COMMENT "ExactAudioCopy v1.0b1"
PERFORMER "Antonio Forcione"
TITLE "Acoustic Revenge"
FILE "Antonio Forcione - Acoustic Revenge.flac" WAVE
TRACK 01 AUDIO
TITLE "Gypsy Dreams"
PERFORMER "Antonio Forcione"
INDEX 01 00:00:00
TRACK 02 AUDIO
TITLE "Acoustic Revenge"
PERFORMER "Antonio Forcione"
INDEX 01 04:57:42
TRACK 03 AUDIO
TITLE "Infanzia"
PERFORMER "Antonio Forcione"
INDEX 01 09:51:10
TRACK 04 AUDIO
TITLE "Primavera"
PERFORMER "Antonio Forcione"
INDEX 01 13:59:55
TRACK 05 AUDIO
TITLE "Anna"
PERFORMER "Antonio Forcione"
INDEX 01 18:29:40
TRACK 06 AUDIO
TITLE "Black Magic"
PERFORMER "Antonio Forcione"
INDEX 01 22:56:60
TRACK 07 AUDIO
TITLE "Enigma"
PERFORMER "Antonio Forcione"
INDEX 01 27:54:60
TRACK 08 AUDIO
TITLE "Easy Going"
PERFORMER "Antonio Forcione"
INDEX 01 31:14:65
TRACK 09 AUDIO
TITLE "Heart Beat"
PERFORMER "Antonio Forcione"
INDEX 01 36:10:12
По всем вопросам пишите личное сообщение пользователю M0p94ok.
17:42
419
Нет комментариев. Ваш будет первым!