Поиск

(Highlife, Afro-beat) VA - Ghana Special: Modern Highlife, Afro-Sounds & Ghanaian Blues 1968-81 - 2009, (2xCD) FLAC (image+.cue) lossless

(Highlife, Afro-beat) VA - Ghana Special: Modern Highlife, Afro-Sounds & Ghanaian Blues 1968-81 - 2009, (2xCD) FLAC (image+.cue) lossless
Треклист:
Ghana Special: Modern Highlife, Afro-Sounds & Ghanaian Blues 1968-81
Жанр: Highlife, Afrobeat
Страна-производитель диска: UK
Год издания диска: 2009
Издатель (лейбл): Soundway
Номер по каталогу: SNDWCD016
Аудио кодек: FLAC (*.flac)
Тип рипа: image+.cue
Битрейт аудио: lossless
Продолжительность: cd1 - 1:08:58 ; cd2 - 1:14:21
Источник (релизер): cd
Наличие сканов в содержимом раздачи: нет
 
Треклист
CD1
01 Mercury Dance Band - Kai Wawa (3:01)
02 T. O. Jazz Owou - Adaadaa Me (2:52)
03 Christy Azuma & Uppers International - Din Ya Sugri (7:03)
04 The Barbecues - Aaya Lolo (3:48)
05 Ohiani Sua Efir - Asaase Ase (4:02)
06 St Peter & The Holymen - Bofoo Beye Abowa Den (3:15)
07 City Boys Band - Nya Asem Hwe (4:51)
08 Hedzolleh Soundz - Edina Benya (3:17)
09 The Cutlass Dance Band - Hwehwe Mu Yi Wo Mpena (3:18)
10 Dr. K Gyasi & His Noble Kings - Sei Nazo (3:02)
11 Kyeremateng Atwede & His Kyermateng Stars - I Go Die For You (5:23)
12 Vis A Vis - Obi Agye Me Dofo (9:51)
13 Ebo Taylor - Twer Nymae (5:22)
14 The Big Beats - Mi Nsumoo Bo Donn (3:39)
15 Pa Steele's African Brothers - Odo Mmera (3:01)
16 The Ogyatanaa Show Band - You Monopolise Me (3:14)
CD2
01 The African Brothers International Band - Wompe Masem (4:19)
02 Gyedu-Blay Ambolley & His Creations - Akoko Ba (5:26)
03 The Sweet Talks - Akampanye (4:27)
04 Houghas Sorowonko - Enuanom Adofo (3:10)
05 Oscar Sulley's Nzele Soundz - Bukom (3:28)
06 Bokoor Band - You Can Go (3:22)
07 K. Frimpong & His Cubanos Fiestas - Kyenkyen Bi Adi M'Awu (6:57)
08 Basa Basa Soundz feat. Fela Anikulapo Kuti - Dr Solutsu (3:22)
09 Pagadeja - Tamale (3:11)
10 Hedzoleh Soundz - Omusus Da Fe M'Musu (4:58)
11 The Uhuru Dance Band - Yahyia Mu (4:11)
12 Dr. K. Gyasi & His Noble Kings - Noble Kings (Yako Aba) (5:46)
13 The Wellis Band - Bindiga (3:25)
14 Boombaya - Boombaya (3:39)
15 Sawaaba Soundz - Owuo (4:20)
16 The Cutlass Dance Band - Them Go Talk Of You (3:30)
17 Honny & The Bees Band - Sis Mbon (6:48)
 
Лог создания рипа CD1
Exact Audio Copy V1.0 beta 1 from 15. November 2010
EAC extraction logfile from 8. May 2011, 16:22
Various / Ghana Special: Modern Highlife, Afro-Sounds & Ghanaian Blues 1968-81 CD1
Used drive : ASUS CRW-4816A Adapter: 2 ID: 1
Read mode : Secure
Utilize accurate stream : Yes
Defeat audio cache : Yes
Make use of C2 pointers : No
Read offset correction : 12
Overread into Lead-In and Lead-Out : No
Fill up missing offset samples with silence : Yes
Delete leading and trailing silent blocks : No
Null samples used in CRC calculations : Yes
Used interface : Installed external ASPI interface
Used output format : User Defined Encoder
Selected bitrate : 1024 kBit/s
Quality : High
Add ID3 tag : No
Command line compressor : C:\Program Files\Exact Audio Copy\Flac\flac.exe
Additional command line options : -8 -V %s
TOC of the extracted CD
Track | Start | Length | Start sector | End sector
---------------------------------------------------------
1 | 0:00.00 | 3:00.45 | 0 | 13544
2 | 3:00.45 | 2:51.73 | 13545 | 26442
3 | 5:52.43 | 7:02.52 | 26443 | 58144
4 | 12:55.20 | 3:48.22 | 58145 | 75266
5 | 16:43.42 | 4:02.02 | 75267 | 93418
6 | 20:45.44 | 3:14.40 | 93419 | 108008
7 | 24:00.09 | 4:51.07 | 108009 | 129840
8 | 28:51.16 | 3:17.02 | 129841 | 144617
9 | 32:08.18 | 3:17.41 | 144618 | 159433
10 | 35:25.59 | 3:02.23 | 159434 | 173106
11 | 38:28.07 | 5:22.72 | 173107 | 197328
12 | 43:51.04 | 9:50.53 | 197329 | 241631
13 | 53:41.57 | 5:21.54 | 241632 | 265760
14 | 59:03.36 | 3:39.13 | 265761 | 282198
15 | 62:42.49 | 3:01.30 | 282199 | 295803
16 | 65:44.04 | 3:14.32 | 295804 | 310385
Range status and errors
Selected range
Filename J:\temp\nnm\Various - Ghana Special CD1.wav
Peak level 98.8 %
Extraction speed 0.2 X
Range quality 100.0 %
Test CRC 59129542
Copy CRC 59129542
Copy OK
No errors occurred
AccurateRip summary
Track 1 accurately ripped (confidence 7) [16E24B57]
Track 2 accurately ripped (confidence 7) [79E49FCB]
Track 3 accurately ripped (confidence 7) [F9D854FA]
Track 4 accurately ripped (confidence 7) [125851BD]
Track 5 accurately ripped (confidence 7) [1DE25BC8]
Track 6 accurately ripped (confidence 7) [5555814D]
Track 7 accurately ripped (confidence 7) [2EF174A7]
Track 8 accurately ripped (confidence 7) [A6130668]
Track 9 accurately ripped (confidence 7) [3114E5F5]
Track 10 accurately ripped (confidence 7) [71AACDE5]
Track 11 accurately ripped (confidence 7) [651B696D]
Track 12 accurately ripped (confidence 7) [3DC20CF7]
Track 13 accurately ripped (confidence 7) [B69B9E98]
Track 14 accurately ripped (confidence 7) [99E9D2DF]
Track 15 accurately ripped (confidence 7) [89211316]
Track 16 accurately ripped (confidence 7) [3B2300A6]
All tracks accurately ripped
End of status report
 
Лог создания рипа CD2
Exact Audio Copy V1.0 beta 1 from 15. November 2010
EAC extraction logfile from 8. May 2011, 15:31
Various / Ghana Special: Modern Highlife, Afro sounds & Ghanaian Blues 1968-81 CD2
Used drive : ASUS CRW-4816A Adapter: 2 ID: 1
Read mode : Secure
Utilize accurate stream : Yes
Defeat audio cache : Yes
Make use of C2 pointers : No
Read offset correction : 12
Overread into Lead-In and Lead-Out : No
Fill up missing offset samples with silence : Yes
Delete leading and trailing silent blocks : No
Null samples used in CRC calculations : Yes
Used interface : Installed external ASPI interface
Used output format : User Defined Encoder
Selected bitrate : 1024 kBit/s
Quality : High
Add ID3 tag : No
Command line compressor : C:\Program Files\Exact Audio Copy\Flac\flac.exe
Additional command line options : -8 -V %s
TOC of the extracted CD
Track | Start | Length | Start sector | End sector
---------------------------------------------------------
1 | 0:00.00 | 4:19.24 | 0 | 19448
2 | 4:19.24 | 5:26.37 | 19449 | 43935
3 | 9:45.61 | 4:27.23 | 43936 | 63983
4 | 14:13.09 | 3:09.51 | 63984 | 78209
5 | 17:22.60 | 3:28.10 | 78210 | 93819
6 | 20:50.70 | 3:21.59 | 93820 | 108953
7 | 24:12.54 | 6:57.00 | 108954 | 140228
8 | 31:09.54 | 3:22.17 | 140229 | 155395
9 | 34:31.71 | 3:11.12 | 155396 | 169732
10 | 37:43.08 | 4:58.17 | 169733 | 192099
11 | 42:41.25 | 4:10.65 | 192100 | 210914
12 | 46:52.15 | 5:46.25 | 210915 | 236889
13 | 52:38.40 | 3:24.71 | 236890 | 252260
14 | 56:03.36 | 3:39.30 | 252261 | 268715
15 | 59:42.66 | 4:20.28 | 268716 | 288243
16 | 64:03.19 | 3:30.00 | 288244 | 303993
17 | 67:33.19 | 6:47.45 | 303994 | 334563
Range status and errors
Selected range
Filename J:\temp\nnm\Various - Ghana Special CD2.wav
Peak level 98.8 %
Extraction speed 0.4 X
Range quality 99.9 %
Test CRC 737A1FB7
Copy CRC 737A1FB7
Copy OK
No errors occurred
AccurateRip summary
Track 1 accurately ripped (confidence 7) [46E981DC]
Track 2 accurately ripped (confidence 7) [7E914A16]
Track 3 accurately ripped (confidence 7) [DB413260]
Track 4 accurately ripped (confidence 7) [6279E1F9]
Track 5 accurately ripped (confidence 7) [B06FD975]
Track 6 accurately ripped (confidence 7) [B6CD70B5]
Track 7 accurately ripped (confidence 7) [FF7A5ED6]
Track 8 accurately ripped (confidence 7) [4A565477]
Track 9 accurately ripped (confidence 7) [8DA7D96F]
Track 10 accurately ripped (confidence 7) [C7A4FC10]
Track 11 accurately ripped (confidence 6) [676BB75E]
Track 12 accurately ripped (confidence 7) [FC5199F4]
Track 13 accurately ripped (confidence 7) [71C14244]
Track 14 accurately ripped (confidence 7) [D2B72066]
Track 15 accurately ripped (confidence 7) [B2B48C0B]
Track 16 accurately ripped (confidence 7) [B5E91465]
Track 17 accurately ripped (confidence 7) [3796A9E2]
All tracks accurately ripped
End of status report
21:40
289
Нет комментариев. Ваш будет первым!