Вы используете незарегистрированную версию компонента "Вкладки"!

Поиск

(Hard Bop/Crossover Jazz)Michel Legrand : Michel Legrand At Shelly`s Manne-Hole(Live 1968) , FLAC (image+.cue) , lossless

(Hard Bop/Crossover Jazz)Michel Legrand : Michel Legrand At Shelly`s Manne-Hole(Live 1968) , FLAC (image+.cue) , lossless
Треклист:
Michel Legrand : Michel Legrand At Shelly`s Manne-Hole(Live 1968)
Жанр: Hard Bop/Crossover Jazz
Аудио кодек: FLAC
Тип рипа: image+.cue
Битрейт аудио: lossless
продолжительность cd: 00:54:38
производитель cd : Verve Records 834 827 2 (USA)
год выпуска cd : 1988

Трэклист :
01. The Grand Brown Man (7:57)
02. A Time For Love (5:39)
03. Ray's Riff (8:14)
04. Watch What Happens (6:15)
05. My Funny Valentine (6:09)
06. Another Blues (8:30)
07. Willow Weep For Me (6:12)
08. Los Gatos (5:39)
 
Лог EAC
Exact Audio Copy V0.99 prebeta 5 from 4. May 2009
Отчёт EAC об извлечении, выполненном 7. мая 2010, 15:19
Michel LeGrand / Michel LeGrand at Shelly's Manne-Hole
Дисковод: SONY DVD RW DRX-S70U Adapter: 1 ID: 0
Режим чтения : Достоверность
Использование точного потока : Да
Отключение кэша аудио : Да
Использование указателей C2 : Нет
Коррекция смещения при чтении : 48
Способность читать области Lead-in и Lead-out : Нет
Заполнение пропущенных сэмплов тишиной : Да
Удаление блоков с тишиной в начале и конце : Нет
При вычислениях CRC использовались нулевые сэмплы : Да
Интерфейс : Встроенный Win32-интерфейс для Win NT/2000
Выходной формат : Пользовательский кодировщик
Выбранный битрейт : 768 kBit/s
Качество : Высокий
Добавление ID3-тэга : Да
Утилита сжатия : H:\Program Files\Exact Audio Copy\Flac\flac.exe
Дополнительные параметры : -6 -V -T "ARTIST=%a" -T "TITLE=%t" -T "ALBUM=%g" -T "DATE=%y" -T "TRACKNUMBER=%n" -T "GENRE=%m" -T "COMMENT=%e" %s -o %d
TOC извлечённого CD
Трек | Старт | Длительность | Начальный сектор | Конечный сектор
---------------------------------------------------------------------
1 | 0:00.33 | 7:57.17 | 33 | 35824
2 | 7:57.50 | 5:39.13 | 35825 | 61262
3 | 13:36.63 | 8:14.20 | 61263 | 98332
4 | 21:51.08 | 6:15.00 | 98333 | 126457
5 | 28:06.08 | 6:09.25 | 126458 | 154157
6 | 34:15.33 | 8:30.00 | 154158 | 192407
7 | 42:45.33 | 6:12.00 | 192408 | 220307
8 | 48:57.33 | 5:39.00 | 220308 | 245732
Характеристики диапазона извлечения и сообщения об ошибках
Выбранный диапазон
Имя файла E:\Michel Legrand\Michel Legrand At Shelly`s Manne-Hole\Michel LeGrand - Michel LeGrand at Shelly's Manne-Hole.wav
Пиковый уровень 98.0 %
Качество диапазона 100.0 %
CRC теста 938F93E9
CRC копии 938F93E9
Копирование... OK
Ошибок не произошло
AccurateRip: сводка
Трек 1 нет в базе данных
Трек 2 нет в базе данных
Трек 3 нет в базе данных
Трек 4 нет в базе данных
Трек 5 нет в базе данных
Трек 6 нет в базе данных
Трек 7 нет в базе данных
Трек 8 нет в базе данных
Ни одного трека нет в базе AccurateRip
Конец отчёта
 
Лог Audiochecker
AUDIOCHECKER v2.0 beta (build 457) - by Dester - opdester@freemail.hu
~~~~~~~~~~~~~~~~~~~~~~~~~~~~~~~~~~
-=== DO NOT EDIT THIS FILE! ===-
Путь: ...\Michel Legrand At Shelly`s Manne-Hole
1 -=- Michel LeGrand - Michel LeGrand at Shelly's Manne-Hole.flac -=- CDDA (76%)
134781300
 
*CUE
REM GENRE Jazz
REM DATE 1968
REM DISCID 7F0CCC08
REM COMMENT "ExactAudioCopy v0.99pb5"
PERFORMER "Michel LeGrand"
TITLE "Michel LeGrand at Shelly's Manne-Hole"
FILE "Michel LeGrand - Michel LeGrand at Shelly's Manne-Hole.flac" WAVE
TRACK 01 AUDIO
TITLE "The Grand Brown Man"
PERFORMER "Michel LeGrand"
INDEX 00 00:00:00
INDEX 01 00:00:33
TRACK 02 AUDIO
TITLE "A Time For Love"
PERFORMER "Michel LeGrand"
INDEX 01 07:57:50
TRACK 03 AUDIO
TITLE "Ray's Riff"
PERFORMER "Michel LeGrand"
INDEX 01 13:36:63
TRACK 04 AUDIO
TITLE "Watch What Happens"
PERFORMER "Michel LeGrand"
INDEX 01 21:51:08
TRACK 05 AUDIO
TITLE "My Funny Valentine"
PERFORMER "Michel LeGrand"
INDEX 00 28:04:08
INDEX 01 28:06:08
TRACK 06 AUDIO
TITLE "Another Blues"
PERFORMER "Michel LeGrand"
INDEX 01 34:15:33
TRACK 07 AUDIO
TITLE "Willow Weep For Me"
PERFORMER "Michel LeGrand"
INDEX 01 42:45:33
TRACK 08 AUDIO
TITLE "Los Gatos"
PERFORMER "Michel LeGrand"
INDEX 01 48:57:33
рип мой с оригинального cd из моей коллекции .
Any questions - support@pro-jazz.com. Есть вопросы - support@pro-jazz.com
12:41
256
Нет комментариев. Ваш будет первым!