Поиск

(Hard Bop, Soul Note) Max Roach Quartet (Cecil Bridgewater, Odean Pope, Calvin Hill) - In the Light - 1983, FLAC (tracks+.cue), lossless

(Hard Bop, Soul Note) Max Roach Quartet (Cecil Bridgewater, Odean Pope, Calvin Hill) - In the Light - 1983, FLAC (tracks+.cue), lossless
Издатель (лейбл):
Треклист:
Max Roach Quartet / In the Light
Жанр: Hard Bop, Soul Note
Страна-производитель диска: Italy
Год издания: 1983
Издатель (лейбл): Soul Note
Номер по каталогу: SN-1053CD
Аудиокодек: FLAC (*.flac)
Тип рипа: tracks+.cue
Битрейт аудио: lossless
Продолжительность: 42:21
Источник (релизер): Max Monteiro
Наличие сканов в содержимом раздачи: нет
Треклист:
1. Cut 1. In the Light (Max Roach) 8:43
2. Cut 2. Straight No Chaser (Thelonious Monk) 7:06
3. Cut 3. Ruby My Dear (Thelonious Monk) 4:59
4. Cut 4. Henry Street Blues (Max Roach) 4:51
5. Cut 5. If You Could See Me Now (Tadd Dameron) 4:31
6. Cut 6. Good Bait (Tadd Dameron) 7:42
7. Cut 7. Tricotism (Oscar Pettiford) 4:28
Recorded July 22 and 23, 1982 at Barigozzi Studio, Milano.
Cecil Bridgewater – Trumpet, Flugelhorn
Odean Pope – Tenor Saxophone
Calvin Hill – Bass
Max Roach – Drums
 
Лог создания рипа
Exact Audio Copy V1.0 beta 3 from 29. August 2011
EAC extraction logfile from 26. June 2013, 21:07
Max Roach Quartet / In the Light
Used drive  : SlimtypeeNAU508   5   Adapter: 1  ID: 0
Read mode               : Secure
Utilize accurate stream : Yes
Defeat audio cache      : Yes
Make use of C2 pointers : No
Read offset correction                      : 6
Overread into Lead-In and Lead-Out          : No
Fill up missing offset samples with silence : Yes
Delete leading and trailing silent blocks   : No
Null samples used in CRC calculations       : Yes
Used interface                              : Native Win32 interface for Win NT & 2000
Gap handling                                : Appended to previous track
Used output format              : User Defined Encoder
Selected bitrate                : 768 kBit/s
Quality                         : High
Add ID3 tag                     : No
Command line compressor         : C:\Program Files (x86)\Exact Audio Copy\Flac\flac.exe
Additional command line options : -8 -V -T "ARTIST=%artist%" -T "TITLE=%title%" -T "ALBUM=%albumtitle%" -T "DATE=%year%" -T "TRACKNUMBER=%tracknr%" -T "GENRE=%genre%" -T "PERFORMER=%albuminterpret%" -T "COMPOSER=%composer%" %haslyrics%--tag-from-file=LYRICS="%lyricsfile%"%haslyrics% -T "ALBUMARTIST=%albumartist%" -T "DISCNUMBER=%cdnumber%" -T "TOTALDISCS=%totalcds%" -T "TOTALTRACKS=%numtracks%" -T "COMMENT=%comment%" %source% -o %dest%
TOC of the extracted CD
     Track |   Start  |  Length  | Start sector | End sector
    ---------------------------------------------------------
        1  |  0:00.00 |  8:42.62 |         0    |    39211
        2  |  8:42.62 |  7:06.10 |     39212    |    71171
        3  | 15:48.72 |  4:59.30 |     71172    |    93626
        4  | 20:48.27 |  4:51.15 |     93627    |   115466
        5  | 25:39.42 |  4:31.20 |    115467    |   135811
        6  | 30:10.62 |  7:42.30 |    135812    |   170491
        7  | 37:53.17 |  4:27.38 |    170492    |   190554
Track  1
     Filename C:\EAC rips\01 - Cut 1. In the Light.wav
     Pre-gap length  0:00:02.00
     Peak level 79.0 %
     Extraction speed 2.4 X
     Track quality 100.0 %
     Test CRC 29C53806
     Copy CRC 29C53806
     Accurately ripped (confidence 2)  [3E44C1BF]  (AR v1)
     Copy OK
Track  2
     Filename C:\EAC rips\02 - Cut 2. Straight No Chaser.wav
     Pre-gap length  0:00:01.47
     Peak level 83.2 %
     Extraction speed 2.8 X
     Track quality 100.0 %
     Test CRC 630A31F5
     Copy CRC 630A31F5
     Accurately ripped (confidence 2)  [3646AC0B]  (AR v1)
     Copy OK
Track  3
     Filename C:\EAC rips\03 - Cut 3. Ruby My Dear.wav
     Pre-gap length  0:00:01.32
     Peak level 54.3 %
     Extraction speed 3.0 X
     Track quality 100.0 %
     Test CRC BD6EECA9
     Copy CRC BD6EECA9
     Accurately ripped (confidence 2)  [E408A309]  (AR v1)
     Copy OK
Track  4
     Filename C:\EAC rips\04 - Cut 4. Henry Street Blues.wav
     Pre-gap length  0:00:02.30
     Peak level 86.8 %
     Extraction speed 3.2 X
     Track quality 100.0 %
     Test CRC 802C5833
     Copy CRC 802C5833
     Accurately ripped (confidence 2)  [21854FD8]  (AR v1)
     Copy OK
Track  5
     Filename C:\EAC rips\05 - Cut 5. If You Could See Me Now.wav
     Pre-gap length  0:00:01.10
     Peak level 62.8 %
     Extraction speed 2.8 X
     Track quality 99.9 %
     Test CRC 40B0E9D0
     Copy CRC 40B0E9D0
     Accurately ripped (confidence 2)  [316D45A2]  (AR v1)
     Copy OK
Track  6
     Filename C:\EAC rips\06 - Cut 6. Good Bait.wav
     Pre-gap length  0:00:01.00
     Peak level 79.4 %
     Extraction speed 3.7 X
     Track quality 100.0 %
     Test CRC BCD761A8
     Copy CRC BCD761A8
     Accurately ripped (confidence 2)  [75C63999]  (AR v1)
     Copy OK
Track  7
     Filename C:\EAC rips\07 - Cut 7. Tricotism.wav
     Pre-gap length  0:00:02.17
     Peak level 63.0 %
     Extraction speed 3.8 X
     Track quality 100.0 %
     Test CRC D2040673
     Copy CRC D2040673
     Accurately ripped (confidence 2)  [D5E9E7DE]  (AR v1)
     Copy OK
All tracks accurately ripped
No errors occurred
End of status report
---- CUETools DB Plugin V2.1.4
[CTDB TOCID: PDaoP4AUesYdNP2m4z4HG9Cj_f0-] disk not present in database
Submit result: PDaoP4AUesYdNP2m4z4HG9Cj_f0- has been uploaded
==== Log checksum B43CE0387FAA40AE6E92C29391B6E6BC0452DC4DBD3A0162293E87CCBDE3B074 ====
 
 
Содержание индексной карты (.CUE)
REM GENRE Jazz
REM DATE 1983
REM DISCID 4A09EC07
REM COMMENT "ExactAudioCopy v1.0b3"
PERFORMER "Max Roach Quartet"
TITLE "In the Light"
FILE "01 - Cut 1. In the Light.wav" WAVE
  TRACK 01 AUDIO
    TITLE "Cut 1. In the Light"
    PERFORMER "Max Roach Quartet"
    INDEX 01 00:00:00
  TRACK 02 AUDIO
    TITLE "Cut 2. Straight No Chaser"
    PERFORMER "Max Roach Quartet"
    INDEX 00 08:41:15
FILE "02 - Cut 2. Straight No Chaser.wav" WAVE
    INDEX 01 00:00:00
  TRACK 03 AUDIO
    TITLE "Cut 3. Ruby My Dear"
    PERFORMER "Max Roach Quartet"
    INDEX 00 07:04:53
FILE "03 - Cut 3. Ruby My Dear.wav" WAVE
    INDEX 01 00:00:00
  TRACK 04 AUDIO
    TITLE "Cut 4. Henry Street Blues"
    PERFORMER "Max Roach Quartet"
    INDEX 00 04:57:00
FILE "04 - Cut 4. Henry Street Blues.wav" WAVE
    INDEX 01 00:00:00
  TRACK 05 AUDIO
    TITLE "Cut 5. If You Could See Me Now"
    PERFORMER "Max Roach Quartet"
    INDEX 00 04:50:05
FILE "05 - Cut 5. If You Could See Me Now.wav" WAVE
    INDEX 01 00:00:00
  TRACK 06 AUDIO
    TITLE "Cut 6. Good Bait"
    PERFORMER "Max Roach Quartet"
    INDEX 00 04:30:20
FILE "06 - Cut 6. Good Bait.wav" WAVE
    INDEX 01 00:00:00
  TRACK 07 AUDIO
    TITLE "Cut 7. Tricotism"
    PERFORMER "Max Roach Quartet"
    INDEX 00 07:40:13
FILE "07 - Cut 7. Tricotism.wav" WAVE
    INDEX 01 00:00:00
Download available for power users only.
21:14
360
Нет комментариев. Ваш будет первым!