Вы используете незарегистрированную версию компонента "Вкладки"!

Поиск

(Hard Bop, Soul-Jazz) Stanley Turrentine - LA Place - 1989, FLAC (tracks+.cue), lossless

Треклист:
Stanley Turrentine - LA Place
Жанр: Hard Bop, Soul-Jazz
Год выпуска диска: 1989
Производитель диска: Blue Note
Аудио кодек: FLAC
Тип рипа: tracks+.cue
Битрейт аудио: lossless
Продолжительность: 41:06
Трэклист:
1 Terrible T. (Lyle, Turrentine) 6:28
2 Cruisin' (Lyle) 5:57
3 Night Breeze (Lyle) 5:00
4 Take 4 (Albright) 4:50
5 Touching (Lyle, Turrentine) 6:08
6 La Place (Street Turrentine) 6:23
7 Sparkle (Lyle) 6:20
Источник: релиз взят с другого трекера
 
Состав
Stanley Nurrentine: tenor saxophone
Bobby Lyle: keyboards
Freddie Hubbard, Michael Stewart: trumpet
Paul Jackson, Jr., David T.Walker, Phil Upchurch: guitar
Abe Laboriel. Kevin Brandon, Gerald Albright: bass
Michael Baker, Tony Lewis: drums
Paulinho DaCosta: percussion
Jean Carne: vocals
David Borof: synthesizer proggramming
Strings conducted by Booker White
 
Об альбоме (eng.)
Rating AMG: 3* AMG Album ID: R 149164 http://allmusic.com/cg/amg.dll?p=amg&sql=10:hxfyxq8gldhe
This certainly can't be compared to the 'Mister T.', especially with most of the songs written by Bobby Lyle, but, in the company of the classy cats listed here, and being on the prestigious Blue Note label, it's worth a shot! After many years of listening to Stanley, I'd have to say he would be one of the influences for Brandon Fields.
 
EAC log
Exact Audio Copy V0.99 prebeta 4 from 23. January 2008
EAC extraction logfile from 31. March 2009, 9:03
Stanley Turrentine / La Place
Used drive : HL-DT-STDVD-RW GSA-H60L Adapter: 1 ID: 1
Read mode : Secure
Utilize accurate stream : Yes
Defeat audio cache : Yes
Make use of C2 pointers : No
Read offset correction : 667
Overread into Lead-In and Lead-Out : No
Fill up missing offset samples with silence : Yes
Delete leading and trailing silent blocks : No
Null samples used in CRC calculations : Yes
Used interface : Native Win32 interface for Win NT & 2000
Gap handling : Not detected, thus appended to previous track
Used output format : User Defined Encoder
Selected bitrate : 320 kBit/s
Quality : High
Add ID3 tag : No
Command line compressor : C:\Program Files\Exact Audio Copy\FLAC\FLAC.EXE
Additional command line options : -6 -V -T "ARTIST=%a" -T "TITLE=%t" -T "ALBUM=%g" -T "DATE=%y" -T "TRACKNUMBER=%n" -T "GENRE=%m" -T "COMMENT=%e" %s -o %d
TOC of the extracted CD
Track | Start | Length | Start sector | End sector
---------------------------------------------------------
1 | 0:00.00 | 6:29.32 | 0 | 29206
2 | 6:29.32 | 6:00.25 | 29207 | 56231
3 | 12:29.57 | 4:58.45 | 56232 | 78626
4 | 17:28.27 | 5:03.05 | 78627 | 101356
5 | 22:31.32 | 6:13.15 | 101357 | 129346
6 | 28:44.47 | 6:28.35 | 129347 | 158481
7 | 35:13.07 | 6:22.68 | 158482 | 187199
Track 1
Filename C:\Users\Culinary Express\Desktop\Stanley Turrentine - La Place\01-Terrible T.wav
Peak level 95.2 %
Track quality 100.0 %
Copy CRC 154E96C2
Accurately ripped (confidence 1) [90BD7ADA]
Copy OK
Track 2
Filename C:\Users\Culinary Express\Desktop\Stanley Turrentine - La Place\02-Cruisin'.wav
Peak level 100.0 %
Track quality 100.0 %
Copy CRC 27E3D8CD
Accurately ripped (confidence 1) [2D45C8E9]
Copy OK
Track 3
Filename C:\Users\Culinary Express\Desktop\Stanley Turrentine - La Place\03-Night Breeze.wav
Peak level 92.9 %
Track quality 100.0 %
Copy CRC 96DC0B8D
Accurately ripped (confidence 1) [7D32ADB3]
Copy OK
Track 4
Filename C:\Users\Culinary Express\Desktop\Stanley Turrentine - La Place\04-Take 4.wav
Peak level 100.0 %
Track quality 100.0 %
Copy CRC 6976E60D
Accurately ripped (confidence 1) [DA36E77B]
Copy OK
Track 5
Filename C:\Users\Culinary Express\Desktop\Stanley Turrentine - La Place\05-Touching.wav
Peak level 100.0 %
Track quality 100.0 %
Copy CRC 85CA16B5
Accurately ripped (confidence 1) [EDD1F6E3]
Copy OK
Track 6
Filename C:\Users\Culinary Express\Desktop\Stanley Turrentine - La Place\06-La Place Street.wav
Peak level 100.0 %
Track quality 100.0 %
Copy CRC 9EC18FD1
Accurately ripped (confidence 1) [30DB5600]
Copy OK
Track 7
Filename C:\Users\Culinary Express\Desktop\Stanley Turrentine - La Place\07-Sparkle.wav
Peak level 100.0 %
Track quality 99.9 %
Copy CRC BEE3F843
Accurately ripped (confidence 1) [DFA0B50E]
Copy OK
All tracks accurately ripped
No errors occurred
End of status report
 
Audiochecker log
AUDIOCHECKER v2.0 beta (build 457) - by Dester - opdester@freemail.hu
~~~~~~~~~~~~~~~~~~~~~~~~~~~~~~~~~~
Начато: понедельник, 26. 10. 2009. - 7:49.01
Найдено файлов: 7
1 -===- G:\0\01-Terrible T.flac
Извлечение успешно выполнено
Заключение: этот трек - CDDA с вероятностью 100%
Временный файл удалён.
2 -===- G:\0\02-Cruisin'.flac
Извлечение успешно выполнено
Заключение: этот трек - CDDA с вероятностью 99%
Временный файл удалён.
3 -===- G:\0\03-Night Breeze.flac
Извлечение успешно выполнено
Заключение: этот трек - CDDA с вероятностью 100%
Временный файл удалён.
4 -===- G:\0\04-Take 4.flac
Извлечение успешно выполнено
Заключение: этот трек - CDDA с вероятностью 100%
Временный файл удалён.
5 -===- G:\0\05-Touching.flac
Извлечение успешно выполнено
Заключение: этот трек - CDDA с вероятностью 99%
Временный файл удалён.
6 -===- G:\0\06-La Place Street.flac
Извлечение успешно выполнено
Заключение: этот трек - CDDA с вероятностью 100%
Временный файл удалён.
7 -===- G:\0\07-Sparkle.flac
Извлечение успешно выполнено
Заключение: этот трек - CDDA с вероятностью 99%
Временный файл удалён.
Завершено: понедельник, 26. 10. 2009. - 8:06.48 (Время операции: 0:17.46)
Any questions -> support@pro-jazz.com. По всем вопросам пишите -> support@pro-jazz.com
01:50
167
Нет комментариев. Ваш будет первым!