Поиск

(Hard Bop, Soul Jazz) Jimmy Forrest - All the Gin Is Gone - 1959, FLAC (tracks+.cue), lossless

(Hard Bop, Soul Jazz) Jimmy Forrest - All the Gin Is Gone - 1959, FLAC (tracks+.cue), lossless
Треклист:
Jimmy Forrest - All the Gin Is Gone
Жанр: Hard Bop, Soul Jazz
Страна-производитель диска: США
Год издания: 1997
Издатель (лейбл): Delmark
Номер по каталогу: DD-404
Аудиокодек: FLAC (*.flac)
Тип рипа: tracks+.cue
Битрейт аудио: lossless
Продолжительность: 41:32
Источник (релизер): aaaaron357 (what)
Наличие сканов в содержимом раздачи: да
Треклист:
01. All the Gin Is Gone (Forrest) - 4:50
02. Laura (Raksin-Mercer) - 6:46
03. You Go to My Head (Coots-Gillespie) - 6:36
04. Myra (Forrest) - 5:34
05. Caravan (Ellington-Mills-Tizol) - 9:27
06. What's New (Haggart-Burke) - 3:01
07. Sunkenfoal (Forrest) - 5:18
Состав:
Jimmy Forrest - tenor saxophone
Grant Green - guitar
Harold Mabern - piano
Gene Ramey - bass
Elvin Jones - drums
Recorded at Hall Studios, Chicago, IL on December 10-12, 1959.
 
Лог создания рипа
Exact Audio Copy V0.99 prebeta 3 from 28. July 2007
EAC extraction logfile from 27. August 2008, 23:52
Jimmy Forrest / All the Gin is Gone
Used drive  : PIONEER DVD-RW  DVR-111D   Adapter: 0  ID: 0
Read mode               : Secure
Utilize accurate stream : Yes
Defeat audio cache      : Yes
Make use of C2 pointers : No
Read offset correction                      : 48
Overread into Lead-In and Lead-Out          : No
Fill up missing offset samples with silence : Yes
Delete leading and trailing silent blocks   : No
Null samples used in CRC calculations       : Yes
Used interface                              : Installed external ASPI interface
Gap handling                                : Appended to previous track
Used output format : Internal WAV Routines
Sample format      : 44.100 Hz; 16 Bit; Stereo
TOC of the extracted CD
     Track |   Start  |  Length  | Start sector | End sector
    ---------------------------------------------------------
        1  |  0:00.00 |  4:50.27 |         0    |    21776
        2  |  4:50.27 |  6:45.50 |     21777    |    52201
        3  | 11:36.02 |  6:35.43 |     52202    |    81869
        4  | 18:11.45 |  5:34.07 |     81870    |   106926
        5  | 23:45.52 |  9:27.03 |    106927    |   149454
        6  | 33:12.55 |  3:01.15 |    149455    |   163044
        7  | 36:13.70 |  5:18.35 |    163045    |   186929
Track  1
     Filename C:\Documents and Settings\frank\My Documents\0 NYP\000 BACK TO FLACs\All The Gin Is Gone\01 All the Gin is Gone.wav
     Pre-gap length  0:00:02.00
     Peak level 99.2 %
     Track quality 100.0 %
     Copy CRC F521F9A1
     Copy OK
Track  2
     Filename C:\Documents and Settings\frank\My Documents\0 NYP\000 BACK TO FLACs\All The Gin Is Gone\02 Laura.wav
     Pre-gap length  0:00:03.50
     Peak level 96.0 %
     Track quality 100.0 %
     Copy CRC C039E38D
     Copy OK
Track  3
     Filename C:\Documents and Settings\frank\My Documents\0 NYP\000 BACK TO FLACs\All The Gin Is Gone\03 You Go to my Head.wav
     Pre-gap length  0:00:03.42
     Peak level 95.6 %
     Track quality 100.0 %
     Copy CRC BFB33F4F
     Copy OK
Track  4
     Filename C:\Documents and Settings\frank\My Documents\0 NYP\000 BACK TO FLACs\All The Gin Is Gone\04 Myra.wav
     Pre-gap length  0:00:03.45
     Peak level 96.1 %
     Track quality 100.0 %
     Copy CRC FDC7A1BC
     Copy OK
Track  5
     Filename C:\Documents and Settings\frank\My Documents\0 NYP\000 BACK TO FLACs\All The Gin Is Gone\05 Caravan.wav
     Pre-gap length  0:00:03.42
     Peak level 96.1 %
     Track quality 100.0 %
     Copy CRC 6D386411
     Copy OK
Track  6
     Filename C:\Documents and Settings\frank\My Documents\0 NYP\000 BACK TO FLACs\All The Gin Is Gone\06 What's New.wav
     Pre-gap length  0:00:03.43
     Peak level 96.1 %
     Track quality 100.0 %
     Copy CRC 40F96F85
     Copy OK
Track  7
     Filename C:\Documents and Settings\frank\My Documents\0 NYP\000 BACK TO FLACs\All The Gin Is Gone\07 Sunkenfoal.wav
     Pre-gap length  0:00:03.43
     Peak level 96.2 %
     Track quality 99.9 %
     Copy CRC 79A6FB27
     Copy OK
No errors occurred
End of status report
 
 
Содержание индексной карты (.CUE)
REM GENRE Jazz
REM DATE 1959
REM DISCID 6709BC07
REM COMMENT "ExactAudioCopy v0.99pb3"
PERFORMER "Jimmy Forrest"
TITLE "All the Gin Is Gone"
FILE "01 - All the Gin Is Gone.wav" WAVE
  TRACK 01 AUDIO
    TITLE "All the Gin Is Gone"
    PERFORMER "Jimmy Forrest"
    INDEX 01 00:00:00
  TRACK 02 AUDIO
    TITLE "Laura"
    PERFORMER "Jimmy Forrest"
    INDEX 00 04:46:52
FILE "02 - Laura.wav" WAVE
    INDEX 01 00:00:00
  TRACK 03 AUDIO
    TITLE "You Go to My Head"
    PERFORMER "Jimmy Forrest"
    INDEX 00 06:42:08
FILE "03 - You Go to My Head.wav" WAVE
    INDEX 01 00:00:00
  TRACK 04 AUDIO
    TITLE "Myra"
    PERFORMER "Jimmy Forrest"
    INDEX 00 06:31:73
FILE "04 - Myra.wav" WAVE
    INDEX 01 00:00:00
  TRACK 05 AUDIO
    TITLE "Caravan"
    PERFORMER "Jimmy Forrest"
    INDEX 00 05:30:40
FILE "05 - Caravan.wav" WAVE
    INDEX 01 00:00:00
  TRACK 06 AUDIO
    TITLE "What's New"
    PERFORMER "Jimmy Forrest"
    INDEX 00 09:23:35
FILE "06 - What's New.wav" WAVE
    INDEX 01 00:00:00
  TRACK 07 AUDIO
    TITLE "Sunkenfoal"
    PERFORMER "Jimmy Forrest"
    INDEX 00 02:57:47
FILE "07 - Sunkenfoal.wav" WAVE
    INDEX 01 00:00:00
 
 
Отчет CUETools
[CUETools log; Date: 28.05.2013 18:48:46; Version: 2.1.4]
[CTDB TOCID: hF8fqPQ2fluVjAgMiQDozYVMyQA-] found.
Track | CTDB Status
  1   | (1/1) Accurately ripped
  2   | (1/1) Accurately ripped
  3   | (1/1) Accurately ripped
  4   | (1/1) Accurately ripped
  5   | (1/1) Accurately ripped
  6   | (1/1) Accurately ripped
  7   | (1/1) Accurately ripped
[AccurateRip ID: 000ba15e-00462031-6709bc07] disk not present in database.
Track Peak [ CRC32  ] [W/O NULL] [  LOG   ]
 --   99,2 [51C775D0] [39BED3E6]
 01   99,2 [F521F9A1] [43DF6BA9]   CRC32
 02   96,0 [C039E38D] [0DAE0BDF]   CRC32
 03   95,6 [BFB33F4F] [ED6E7D4D]   CRC32
 04   96,1 [FDC7A1BC] [8373EF97]   CRC32
 05   96,1 [6D386411] [BDB29449]   CRC32
 06   96,1 [40F96F85] [40EF4B21]   CRC32
 07   96,2 [79A6FB27] [F2EC519A]   CRC32
 
 
Review by Scott Yanow
This was the first album that tenor saxophonist Jimmy Forrest made after his R&B phase ended. Particularly notable is that the set served as the recording debut of guitarist Grant Green; completing the band are pianist Harold Mabern, bassist Gene Ramey and drummer Elvin Jones. The top-notch group performs two ballads, "Caravan" and three basic Forrest originals, including the title cut. The music is essentially melodic and blues-based hard bop that looks toward soul-jazz. Everyone sounds in fine form.
По всем вопросам пишите личное сообщение пользователю M0p94ok.
20:20
326
Нет комментариев. Ваш будет первым!