Поиск

(Hard Bop) Sam Jones - Down Home - 1962, FLAC (tracks+.cue), lossless

Sam Jones - Down Home
Жанр: Hard Bop
Дата записи: 1962
Дата выпуска: 1995 - Remaster
Производитель диска, страна: Riverside OJCCD 1864-2
Аудио кодек: FLAC
Тип рипа: (tracks + .cue)
Битрейт аудио: lossless
Продолжительность: 39:38
Источник: torrent
Риппер: ivolivi
Трэклист:
1. Unit 7 - Sam Jones 4:52
2. Come Rain Or Come Shine - Sam Jones 4:08
3. 'Round Midnight 5:31
4. O.P. - Sam Jones 5:08
5. Thumbstring - Sam Jones 4:32
6. Down Home - Sam Jones 4:11
7. Strollin' - Sam Jones 4:14
8. Falling In Love With Love - Sam Jones 7:02
Об альбоме:
http://www.allmusic.com/cg/amg.dll?p=amg&sql=10:0xfuxqlgldfe
Состав:
NYC, June 25, 1962 - #3, 4 & 8
Les Spann (fl)
Joe Zawinul (p)
Sam Jones (cello)
Israel Crosby (b)
Vernel Fournier (d)
NYC, August 15 or 16, 1962 - #1, 2, 5, 7
Snooky Young (tp -2,3)
Blue Mitchell (tp -2/5)
Clark Terry (tp -4,5)
Jimmy Cleveland (tb -2/5)
Frank Strozier (fl -1, as -2/5)
Jimmy Heath (ts -2/5)
Pat Patrick (bars, fl -2/5)
Joe Zawinul (p -1/3)
Wynton Kelly (p -4,5)
Sam Jones (cello -1,4,5, b -2,3)
Ron Carter (b -1,4,5)
Ben Riley (d)
Ernie Wilkins (arr -2/5)
Издания:
1962 Riverside 43
1995 CD Original Jazz Classics 1864
1997 CD Ace 18642
 
CD scan
 
 
 
Back scan
 
 
 
EAC log
EAC extraction logfile from 17. November 2007, 11:50 for CD
Sam Jones / Down Home
Used drive  : HL-DT-STDVDRAM GSA-4163B   Adapter: 1  ID: 1
Read mode   : Secure with NO C2, accurate stream, disable cache
Read offset correction : 667
Overread into Lead-In and Lead-Out : No
Used output format : Internal WAV Routines
                     44.100 Hz; 16 Bit; Stereo
Other options      :
    Fill up missing offset samples with silence : Yes
    Delete leading and trailing silent blocks : No
    Installed external ASPI interface
Track  1
     Filename D:\Sam Jones - Down Home (1962)[FLAC]{OJC}\01 - Unit 7.wav
     Pre-gap length  0:00:02.00
     Peak level 86.4 %
     Track quality 100.0 %
     Test CRC 4228ADF1
     Copy CRC 4228ADF1
     Copy OK
Track  2
     Filename D:\Sam Jones - Down Home (1962)[FLAC]{OJC}\02 - Come Rain Or Come Shine.wav
     Pre-gap length  0:00:02.63
     Peak level 74.9 %
     Track quality 100.0 %
     Test CRC AC507B93
     Copy CRC AC507B93
     Copy OK
Track  3
     Filename D:\Sam Jones - Down Home (1962)[FLAC]{OJC}\03 - 'Round Midnight.wav
     Pre-gap length  0:00:02.36
     Peak level 97.5 %
     Track quality 99.9 %
     Test CRC 9A2D7855
     Copy CRC 9A2D7855
     Copy OK
Track  4
     Filename D:\Sam Jones - Down Home (1962)[FLAC]{OJC}\04 - O.P..wav
     Pre-gap length  0:00:02.26
     Peak level 100.0 %
     Track quality 100.0 %
     Test CRC 33DAB9F5
     Copy CRC 33DAB9F5
     Copy OK
Track  5
     Filename D:\Sam Jones - Down Home (1962)[FLAC]{OJC}\05 - Thumbstring.wav
     Pre-gap length  0:00:01.06
     Peak level 73.9 %
     Track quality 100.0 %
     Test CRC 13AB9A44
     Copy CRC 13AB9A44
     Copy OK
Track  6
     Filename D:\Sam Jones - Down Home (1962)[FLAC]{OJC}\06 - Down Home.wav
     Pre-gap length  0:00:02.32
     Peak level 87.9 %
     Track quality 100.0 %
     Test CRC E7C118F4
     Copy CRC E7C118F4
     Copy OK
Track  7
     Filename D:\Sam Jones - Down Home (1962)[FLAC]{OJC}\07 - Strollin'.wav
     Pre-gap length  0:00:01.71
     Peak level 92.3 %
     Track quality 100.0 %
     Test CRC 8EBAE2BD
     Copy CRC 8EBAE2BD
     Copy OK
Track  8
     Filename D:\Sam Jones - Down Home (1962)[FLAC]{OJC}\08 - Falling In Love With Love.wav
     Pre-gap length  0:00:01.74
     Peak level 96.2 %
     Track quality 100.0 %
     Test CRC E4B4DF26
     Copy CRC E4B4DF26
     Copy OK
No errors occured
End of status report
 
 
auCDtect log
299804697 51654668 01 - Unit 7.wav
4077194027 43883660 02 - Come Rain Or Come Shine.wav
1647928506 58569548 03 - 'Round Midnight.wav
263278625 54542924 04 - O.P..wav
674448437 48176060 05 - Thumbstring.wav
3459235332 44464604 06 - Down Home.wav
2245359450 44993804 07 - Strollin'.wav
21733535 74668988 08 - Falling In Love With Love.wav
auCDtect: CD records authenticity detector, version 0.8.2
Copyright (c) 2004 Oleg Berngardt. All rights reserved.
Copyright (c) 2004 Alexander Djourik. All rights reserved.
------------------------------------------------------------
Processing file: [01 - Unit 7.wav]
------------------------------------------------------------
This track looks like CDDA with probability 100%
------------------------------------------------------------
Processing file: [02 - Come Rain Or Come Shine.wav]
------------------------------------------------------------
This track looks like CDDA with probability 100%
------------------------------------------------------------
Processing file: [03 - 'Round Midnight.wav]
------------------------------------------------------------
This track looks like CDDA with probability 100%
------------------------------------------------------------
Processing file: [04 - O.P..wav]
------------------------------------------------------------
This track looks like CDDA with probability 100%
------------------------------------------------------------
Processing file: [05 - Thumbstring.wav]
------------------------------------------------------------
This track looks like CDDA with probability 100%
------------------------------------------------------------
Processing file: [06 - Down Home.wav]
------------------------------------------------------------
This track looks like CDDA with probability 100%
------------------------------------------------------------
Processing file: [07 - Strollin'.wav]
------------------------------------------------------------
This track looks like CDDA with probability 100%
------------------------------------------------------------
Processing file: [08 - Falling In Love With Love.wav]
------------------------------------------------------------
This track looks like CDDA with probability 100%
------------------------------------------------------------
Final Conclusion:
------------------------------------------------------------
These tracks looks like CDDA with probability 100%
Я не сидирую все свои раздачи подолгу, только новые (до 3х первых сидов)
Предлагаю скачавшим максимально долго оставаться на раздаче - весь рейтинг будет ваш
Если нет сидов или раздача находится в архиве, попросите ПМ, и я вернусь
Заботьтесь о своем рейтинге - приветствуется конвертация моих раздач в мп3 и выкладывание в соотвтствующем разделе
16:16
722
Нет комментариев. Ваш будет первым!