Поиск

(Hard Bop) Roy Haynes Quartet — Out Of The Afternoon (1962) — 2010 {Hybrid SACD}, FLAC (tracks+.cue) lossless

Треклист:
Roy Haynes Quartet — Out Of The Afternoon (1962)
Жанр: Hard Bop
Год издания диска: 2010
Издатель (лейбл): Analogue Productions/Impulse!
Номер по каталогу: CIPJ 23 SA
Аудио кодек: FLAC (*.flac)
Тип рипа: tracks+.cue
Битрейт аудио: lossless
Продолжительность: 37:33
Риппер: Bezz
Сканы есть
Треклист:
01. Moon Ray (6:40)
02. Fly Me To The Moon (In Other Words) (6:39)
03. Raoul (5:59)
04. Snap Crackle (4:12)
05. If I Should Lose You (5:49)
06. Long Wharf (4:41)
07. Some Other Spring (3:34)
Personnel:
Roy Haynes - d
Roland Kirk - ts, mnz, stc, fl
Tommy Flanagan - p
Henry Grimes - b
 
Лог создания рипа
Exact Audio Copy V1.0 beta 1 from 15. November 2010
EAC extraction logfile from 23. February 2011, 11:45
Roy Haynes Quartet / Out Of The Afternoon
Used drive : HL-DT-STDVDRAM GP08NU6B Adapter: 1 ID: 0
Read mode : Secure
Utilize accurate stream : Yes
Defeat audio cache : Yes
Make use of C2 pointers : No
Read offset correction : 103
Overread into Lead-In and Lead-Out : No
Fill up missing offset samples with silence : Yes
Delete leading and trailing silent blocks : No
Null samples used in CRC calculations : Yes
Used interface : Native Win32 interface for Win NT & 2000
Gap handling : Appended to previous track
Used output format : User Defined Encoder
Selected bitrate : 128 kBit/s
Quality : High
Add ID3 tag : No
Command line compressor : C:\Program Files\FLAC\flac.exe
Additional command line options : -8 -V -T "ARTIST=%a" -T "TITLE=%t" -T "ALBUM=%g" -T "DATE=%y" -T "TRACKNUMBER=%n" -T "TOTALTRACKS=%x" -T "GENRE=%m" -T "ALBUM ARTIST=%v" -T "ALBUMARTIST=%v" -T "COMMENT=L2Bits, EAC V1.0 beta 1, Secure Mode, Test & Copy, Acc
TOC of the extracted CD
Track | Start | Length | Start sector | End sector
---------------------------------------------------------
1 | 0:00.00 | 6:39.60 | 0 | 29984
2 | 6:39.60 | 6:38.51 | 29985 | 59885
3 | 13:18.36 | 5:59.12 | 59886 | 86822
4 | 19:17.48 | 4:11.57 | 86823 | 105704
5 | 23:29.30 | 5:49.09 | 105705 | 131888
6 | 29:18.39 | 4:40.63 | 131889 | 152951
7 | 33:59.27 | 3:33.63 | 152952 | 168989
Track 1
Filename D:\Bezz Rip\01 - Out Of The Afternoon - Moon Ray.wav
Pre-gap length 0:00:02.00
Peak level 82.5 %
Extraction speed 1.3 X
Track quality 99.9 %
Test CRC BDD34272
Copy CRC BDD34272
Accurately ripped (confidence 2) [5DE03656]
Copy OK
Track 2
Filename D:\Bezz Rip\02 - Out Of The Afternoon - Fly Me To The Moon (In Other Words).wav
Pre-gap length 0:00:02.22
Peak level 69.5 %
Extraction speed 1.6 X
Track quality 100.0 %
Test CRC F363BB97
Copy CRC F363BB97
Accurately ripped (confidence 2) [CC3A99DB]
Copy OK
Track 3
Filename D:\Bezz Rip\03 - Out Of The Afternoon - Raoul.wav
Pre-gap length 0:00:02.64
Peak level 75.5 %
Extraction speed 1.7 X
Track quality 100.0 %
Test CRC 3640CC6A
Copy CRC 3640CC6A
Accurately ripped (confidence 2) [CE110A39]
Copy OK
Track 4
Filename D:\Bezz Rip\04 - Out Of The Afternoon - Snap Crackle.wav
Pre-gap length 0:00:00.33
Peak level 72.2 %
Extraction speed 1.8 X
Track quality 100.0 %
Test CRC A81A5A81
Copy CRC A81A5A81
Accurately ripped (confidence 2) [8C6740DF]
Copy OK
Track 5
Filename D:\Bezz Rip\05 - Out Of The Afternoon - If I Should Lose You.wav
Pre-gap length 0:00:02.40
Peak level 85.0 %
Extraction speed 1.9 X
Track quality 100.0 %
Test CRC 4C06289D
Copy CRC 4C06289D
Accurately ripped (confidence 2) [7B682701]
Copy OK
Track 6
Filename D:\Bezz Rip\06 - Out Of The Afternoon - Long Wharf.wav
Pre-gap length 0:00:03.07
Peak level 71.0 %
Extraction speed 2.0 X
Track quality 100.0 %
Test CRC F5AC81E0
Copy CRC F5AC81E0
Accurately ripped (confidence 2) [39C707F3]
Copy OK
Track 7
Filename D:\Bezz Rip\07 - Out Of The Afternoon - Some Other Spring.wav
Pre-gap length 0:00:03.07
Peak level 63.4 %
Extraction speed 1.8 X
Track quality 99.9 %
Test CRC 30A1948B
Copy CRC 30A1948B
Accurately ripped (confidence 2) [399BB1DB]
Copy OK
All tracks accurately ripped
No errors occurred
End of status report
==== Log checksum 35CE263B8975E4830BB52D5174B541728DBD7F0BE7C56C20728510CF586CF483 ====
 
Содержание индексной карты (.CUE)
REM DISCID 3B08CD07
REM COMMENT "ExactAudioCopy v1.0b1"
PERFORMER "Roy Haynes Quartet"
TITLE "Out Of The Afternoon"
FILE "01. Moon Ray.wav" WAVE
TRACK 01 AUDIO
TITLE "Moon Ray"
PERFORMER "Roy Haynes Quartet"
INDEX 01 00:00:00
TRACK 02 AUDIO
TITLE "Fly Me To The Moon (In Other Words)"
PERFORMER "Roy Haynes Quartet"
INDEX 00 06:37:38
FILE "02. Fly Me To The Moon (In Other Words).wav" WAVE
INDEX 01 00:00:00
TRACK 03 AUDIO
TITLE "Raoul"
PERFORMER "Roy Haynes Quartet"
INDEX 00 06:35:62
FILE "03. Raoul.wav" WAVE
INDEX 01 00:00:00
TRACK 04 AUDIO
TITLE "Snap Crackle"
PERFORMER "Roy Haynes Quartet"
INDEX 00 05:58:54
FILE "04. Snap Crackle.wav" WAVE
INDEX 01 00:00:00
TRACK 05 AUDIO
TITLE "If I Should Lose You"
PERFORMER "Roy Haynes Quartet"
INDEX 00 04:09:17
FILE "05. If I Should Lose You.wav" WAVE
INDEX 01 00:00:00
TRACK 06 AUDIO
TITLE "Long Wharf"
PERFORMER "Roy Haynes Quartet"
INDEX 00 05:46:02
FILE "06. Long Wharf.wav" WAVE
INDEX 01 00:00:00
TRACK 07 AUDIO
TITLE "Some Other Spring"
PERFORMER "Roy Haynes Quartet"
INDEX 00 04:37:56
FILE "07. Some Other Spring.wav" WAVE
INDEX 01 00:00:00
Приватный:
Нет (DHT включён)
Размер:
245.43 Мб (257,355,891 байт) » файлов: 20
Участники:
0 раздают, 0 качают (0 участников всего)
Внешние участники:
5 раздают, 1 качают (6 участников всего) [ Обновить ]
For power users only: no seeders - write to support@pro-jazz.com. Для power user: нет сидеров - пишите на support@pro-jazz.com.
01:43
139
Нет комментариев. Ваш будет первым!