Поиск

(Hard Bop) Roland Kirk - Slightly Latin (1997 Japan Edition) - 1965, FLAC (tracks+.cue), lossless

(Hard Bop) Roland Kirk - Slightly Latin (1997 Japan Edition) - 1965, FLAC (tracks+.cue), lossless
Треклист:
Roland Kirk - Slightly Latin
Жанр: Hard Bop
Страна-производитель диска: Япония
Год издания: 1997
Издатель (лейбл): Limelight/Polygram
Номер по каталогу: PHCE-3094
Страна: США
Аудиокодек: FLAC (*.flac)
Тип рипа: tracks+.cue
Битрейт аудио: lossless
Продолжительность: 38:42
Источник (релизер): hobson (what)
Наличие сканов в содержимом раздачи: да
Треклист:
01. Walk on By (David-Bucharach) - 2:36
02. Raouf (Kirk) - 3:08
03. It's All in the Game (Dawes-Sigman) - 5:21
04. Juarez (Kirk) - 5:27
05. Shakey Money (Kirk) - 2:40
06. Nothing But the Truth (Kirk) - 3:37
07. Safari (Mathias) - 4:31
08. And I Love Her (Lennon-McCartney) - 2:58
09. Ebrauqs (Kirk) - 8:24
Состав:
Roland Kirk - tenor saxophone, stritch, manzello, baritone saxophone, flute, piccolo, chanter
Virgil Jones - trumpet
Martin Banks - flugelhorn
Garnette Brown - trombone
Horace Parlan - piano, celeste
Eddie Mathias - bass
Sonny Brown - drums
Montego Joe - conga
Manuel Ramos - percussion
Recorded at Capitol Studios, New York City on November 16-17, 1965.
 
Лог создания рипа
Exact Audio Copy V1.0 beta 3 from 29. August 2011
EAC extraction logfile from 28. March 2012, 11:48
Roland Kirk / Slightly Latin
Used drive : hp DVD A DH16ABLH Adapter: 0 ID: 1
Read mode : Secure
Utilize accurate stream : Yes
Defeat audio cache : Yes
Make use of C2 pointers : No
Read offset correction : 6
Overread into Lead-In and Lead-Out : No
Fill up missing offset samples with silence : Yes
Delete leading and trailing silent blocks : No
Null samples used in CRC calculations : Yes
Used interface : Native Win32 interface for Win NT & 2000
Gap handling : Appended to previous track
Used output format : User Defined Encoder
Selected bitrate : 1024 kBit/s
Quality : High
Add ID3 tag : Yes
Command line compressor : C:\Program Files (x86)\Exact Audio Copy\Flac\flac.exe
Additional command line options : -8 -V -T "ARTIST=%artist%" -T "TITLE=%title%" -T "ALBUM=%albumtitle%" -T "DATE=%year%" -T "TRACKNUMBER=%tracknr%" -T "GENRE=%genre%" -T "PERFORMER=%albuminterpret%" -T "COMPOSER=%composer%" %haslyrics%--tag-from-file=LYRICS="%lyricsfile%"%haslyrics% -T "ALBUMARTIST=%albumartist%" -T "DISCNUMBER=%cdnumber%" -T "TOTALDISCS=%totalcds%" -T "TOTALTRACKS=%numtracks%" -T "COMMENT=%comment%" %source% -o %dest%
TOC of the extracted CD
Track | Start | Length | Start sector | End sector
---------------------------------------------------------
1 | 0:00.00 | 2:36.37 | 0 | 11736
2 | 2:36.37 | 3:08.00 | 11737 | 25836
3 | 5:44.37 | 5:21.00 | 25837 | 49911
4 | 11:05.37 | 5:27.00 | 49912 | 74436
5 | 16:32.37 | 2:40.00 | 74437 | 86436
6 | 19:12.37 | 3:37.00 | 86437 | 102711
7 | 22:49.37 | 4:31.00 | 102712 | 123036
8 | 27:20.37 | 2:58.00 | 123037 | 136386
9 | 30:18.37 | 8:24.38 | 136387 | 174224
Track 1
Filename C:\Eac\Eac-Rips\roland\01 - Walk On By.wav
Pre-gap length 0:00:02.00
Peak level 83.1 %
Extraction speed 1.7 X
Track quality 100.0 %
Test CRC 8374E0EC
Copy CRC 8374E0EC
Track not present in AccurateRip database
Copy OK
Track 2
Filename C:\Eac\Eac-Rips\roland\02 - Raouf.wav
Pre-gap length 0:00:02.49
Peak level 87.3 %
Extraction speed 1.9 X
Track quality 100.0 %
Test CRC 778AEA5F
Copy CRC 778AEA5F
Track not present in AccurateRip database
Copy OK
Track 3
Filename C:\Eac\Eac-Rips\roland\03 - It's All In The Game.wav
Pre-gap length 0:00:02.49
Peak level 92.8 %
Extraction speed 1.7 X
Track quality 99.9 %
Test CRC 38C2730B
Copy CRC 38C2730B
Track not present in AccurateRip database
Copy OK
Track 4
Filename C:\Eac\Eac-Rips\roland\04 - Juarez.wav
Pre-gap length 0:00:02.49
Peak level 88.9 %
Extraction speed 1.9 X
Track quality 99.9 %
Test CRC 72CA22C4
Copy CRC 72CA22C4
Track not present in AccurateRip database
Copy OK
Track 5
Filename C:\Eac\Eac-Rips\roland\05 - Shaky Money.wav
Pre-gap length 0:00:02.49
Peak level 98.0 %
Extraction speed 1.5 X
Track quality 99.9 %
Test CRC F2645AB1
Copy CRC F2645AB1
Track not present in AccurateRip database
Copy OK
Track 6
Filename C:\Eac\Eac-Rips\roland\06 - Nothing But The Truth.wav
Pre-gap length 0:00:02.49
Peak level 100.0 %
Extraction speed 2.6 X
Track quality 100.0 %
Test CRC E951C32D
Copy CRC E951C32D
Track not present in AccurateRip database
Copy OK
Track 7
Filename C:\Eac\Eac-Rips\roland\07 - Safari.wav
Pre-gap length 0:00:02.49
Peak level 84.0 %
Extraction speed 2.8 X
Track quality 100.0 %
Test CRC EDE2E5E4
Copy CRC EDE2E5E4
Track not present in AccurateRip database
Copy OK
Track 8
Filename C:\Eac\Eac-Rips\roland\08 - And I Love Her.wav
Pre-gap length 0:00:02.49
Peak level 90.1 %
Extraction speed 2.8 X
Track quality 100.0 %
Test CRC D46363B1
Copy CRC D46363B1
Track not present in AccurateRip database
Copy OK
Track 9
Filename C:\Eac\Eac-Rips\roland\09 - Ebrauqs.wav
Pre-gap length 0:00:02.49
Peak level 72.9 %
Extraction speed 3.3 X
Track quality 100.0 %
Test CRC F810F05B
Copy CRC F810F05B
Track not present in AccurateRip database
Copy OK
None of the tracks are present in the AccurateRip database
No errors occurred
End of status report
==== Log checksum D9B860695624CAAD641CB29489D42EC39626C8A5C7272EB498A3016CD926405C ====
 
Содержание индексной карты (.CUE)
REM GENRE Jazz
REM DATE 1966
REM DISCID 75091309
REM COMMENT "ExactAudioCopy v1.0b3"
CATALOG 4988011355394
PERFORMER "Roland Kirk"
TITLE "Slightly Latin"
FILE "01 - Walk On By.wav" WAVE
TRACK 01 AUDIO
TITLE "Walk On By"
PERFORMER "Roland Kirk"
INDEX 01 00:00:00
TRACK 02 AUDIO
TITLE "Raouf"
PERFORMER "Roland Kirk"
INDEX 00 02:34:00
FILE "02 - Raouf.wav" WAVE
INDEX 01 00:00:00
TRACK 03 AUDIO
TITLE "It's All In The Game"
PERFORMER "Roland Kirk"
INDEX 00 03:05:38
FILE "03 - It's All In The Game.wav" WAVE
INDEX 01 00:00:00
TRACK 04 AUDIO
TITLE "Juarez"
PERFORMER "Roland Kirk"
INDEX 00 05:18:38
FILE "04 - Juarez.wav" WAVE
INDEX 01 00:00:00
TRACK 05 AUDIO
TITLE "Shaky Money"
PERFORMER "Roland Kirk"
INDEX 00 05:24:38
FILE "05 - Shaky Money.wav" WAVE
INDEX 01 00:00:00
TRACK 06 AUDIO
TITLE "Nothing But The Truth"
PERFORMER "Roland Kirk"
INDEX 00 02:37:38
FILE "06 - Nothing But The Truth.wav" WAVE
INDEX 01 00:00:00
TRACK 07 AUDIO
TITLE "Safari"
PERFORMER "Roland Kirk"
INDEX 00 03:34:38
FILE "07 - Safari.wav" WAVE
INDEX 01 00:00:00
TRACK 08 AUDIO
TITLE "And I Love Her"
PERFORMER "Roland Kirk"
INDEX 00 04:28:38
FILE "08 - And I Love Her.wav" WAVE
INDEX 01 00:00:00
TRACK 09 AUDIO
TITLE "Ebrauqs"
PERFORMER "Roland Kirk"
INDEX 00 02:55:38
FILE "09 - Ebrauqs.wav" WAVE
INDEX 01 00:00:00
 
Отчет CUETools
[CUETools log; Date: 23.12.2012 13:22:09; Version: 2.1.4]
[CTDB TOCID: jdq9gYSzICI4tZsGZlFJ0qyP1_E-] disk not present in database.
[AccurateRip ID: 000bf951-00597c06-75091309] found.
Track [ CRC | V2 ] Status
01 [ff0e2b8c|b8beb456] (0+0/0) No match
02 [af1baf56|774baa32] (0+0/0) No match
03 [2c7dd305|782a325a] (0+0/0) No match
04 [6d46c422|372ffb40] (0+0/0) No match
05 [2930548a|fbdb5890] (0+0/0) No match
06 [9466f592|c85e3823] (0+0/0) No match
07 [8f44c4b0|1b4dfb9e] (0+0/0) No match
08 [6f36cdef|e0f75b03] (0+0/0) No match
09 [b7dd152d|910bed62] (0+0/0) No match
Track Peak [ CRC32 ] [W/O NULL] [ LOG ]
-- 100,0 [DD54D917] [68275A6A]
01 83,1 [8374E0EC] [3E2C8760] CRC32
02 87,3 [778AEA5F] [DB5943F8] CRC32
03 92,8 [38C2730B] [0ED20505] CRC32
04 88,9 [72CA22C4] [1086CEE4] CRC32
05 98,0 [F2645AB1] [EF084783] CRC32
06 100,0 [E951C32D] [35E662F9] CRC32
07 84,0 [EDE2E5E4] [DFC89EB8] CRC32
08 90,1 [D46363B1] [EFE85241] CRC32
09 72,9 [F810F05B] [B4730722] CRC32
 
Об альбоме (сборнике)
A perennial favourite here at Bacoso's Big Top this is the fabulous Roland Kirk for Limelight Records from 1965.Check "Juarez" for a jaw dropping Mingus/Tijuana Moods styled latin bomb propelled by Montego Joe and Manuel Ramos ; "Raouf" which is just fucking bonkers-Coleridge Perkinson never arranged for vocals this well again ;"Walk on By" which rips into the Bacharach standard with a free for all pandemonium of sound booted along by Kirk doubling up on tenor and baritone.Highly Recommended !!
Dusty Groove raved about it and there usual over the top enthusiasm is entirely justified in this instance:
Unbelievable! This is one of the maddest Roland Kirk albums of all time -- and it's also one of the hardest to find! The title says "Slightly Latin", but it's more of a mixed-up Now Sound/Bacharach-ish blend of orchestrations and voices, plus Exotica tinges, with Roland playing some very off-kilter reed solos on flute and various saxes. The sound is incredible, and the arrangements are incredibly strange -- and the album sounds like nothing that Kirk (or anyone else) has ever done! Highlights include "Shaky Money", "Safari", "Ebrauos", "Raouf", "Juarez", and a wild version of "Walk On By". The whole thing's wild, though, and it never lets up for a minute! More "out" than "easy", and a real treasure that's the kind of reissue we like to get behind!
Приватный:
Нет (DHT включён)
Размер:
264.86 Мб (277,730,540 байт) » файлов: 19
Участники:
0 раздают, 0 качают (0 участников всего)
Внешние участники:
5 раздают, 1 качают (6 участников всего) [ Обновить ]
No seeders - write personal message to M0p94ok. Нет сидеров - пишите в личку M0p94ok.
10:52
105
Нет комментариев. Ваш будет первым!