Поиск

(Hard Bop) (Rahsaan) Roland Kirk - Gifts And Messages (1964) - 2010, FLAC (image+.cue), lossless

(Hard Bop) (Rahsaan) Roland Kirk - Gifts And Messages (1964) - 2010, FLAC (image+.cue), lossless
Треклист:
Roland Kirk – Gifts And Messages (1964)
Жанр: Hard Bop
Год издания: 2010
Издатель (лейбл): Candid
Номер по каталогу: CCS 71005
Аудиокодек: FLAC (*.flac)
Тип рипа: image+.cue
Битрейт аудио: lossless
Продолжительность: 78:48
Rip by transgressions
Наличие сканов в содержимом раздачи: да
Треклист:
01. Ronnie's Intro (0:18)
02. Bags' Groove (12:07)
03. Roland's Intro (2:23)
04. It Might As Well Be Spring (6:30)
05. (On A) Misty Night (9:32)
06. Come Sunday (5:44)
07. Avalon (9:48)
08. My Ship (6:57)
09. A Stritch In Time (10:01)
10. Gifts And Messages (12:37)
11. Reeling And Rhyming (2:51)
Personnel:
Roland Kirk - tenor, strich, manzello, flute, whistle, nose flute, siren, saxophonium
Stan Tracy - piano
Rick Laird - bass
Allan Ganley - drums
Recorded live at Ronnie Scott's Club, London, October 21 and November 3, 1964.
 
 
Лог создания рипа
Exact Audio Copy V1.0 beta 1 from 15. November 2010
EAC extraction logfile from 28. March 2012, 14:42
Roland Kirk / Gifts and Messages
Used drive : ATAPI iHAS324 A Adapter: 2 ID: 0
Read mode : Secure
Utilize accurate stream : Yes
Defeat audio cache : Yes
Make use of C2 pointers : No
Read offset correction : 6
Overread into Lead-In and Lead-Out : No
Fill up missing offset samples with silence : Yes
Delete leading and trailing silent blocks : No
Null samples used in CRC calculations : Yes
Used interface : Native Win32 interface for Win NT & 2000
Used output format : Internal WAV Routines
Sample format : 44.100 Hz; 16 Bit; Stereo
TOC of the extracted CD
Track | Start | Length | Start sector | End sector
---------------------------------------------------------
1 | 0:00.00 | 0:17.65 | 0 | 1339
2 | 0:17.65 | 12:07.20 | 1340 | 55884
3 | 12:25.10 | 2:23.02 | 55885 | 66611
4 | 14:48.12 | 6:30.20 | 66612 | 95881
5 | 21:18.32 | 9:32.30 | 95882 | 138811
6 | 30:50.62 | 5:44.08 | 138812 | 164619
7 | 36:34.70 | 9:47.70 | 164620 | 208714
8 | 46:22.65 | 6:56.60 | 208715 | 239974
9 | 53:19.50 | 10:01.00 | 239975 | 285049
10 | 63:20.50 | 12:36.70 | 285050 | 341819
11 | 75:57.45 | 2:50.45 | 341820 | 354614
Range status and errors
Selected range
Filename C:\New folder (2)\Roland Kirk - Gifts and Messages.wav
Peak level 98.8 %
Extraction speed 0.2 X
Range quality 100.0 %
Test CRC 914E03E0
Copy CRC 914E03E0
Copy OK
No errors occurred
AccurateRip summary
Track 1 not present in database
Track 2 not present in database
Track 3 not present in database
Track 4 not present in database
Track 5 not present in database
Track 6 not present in database
Track 7 not present in database
Track 8 not present in database
Track 9 not present in database
Track 10 not present in database
Track 11 not present in database
None of the tracks are present in the AccurateRip database
End of status report
==== Log checksum 9F9E54D786AAD0CD4B8053A39761EEF0B739CA6B44337643C1C8EFE43D01DD3E ====
 
Содержание индексной карты (.CUE)
REM GENRE Jazz
REM DATE 1964
REM DISCID 9B12780B
REM COMMENT "ExactAudioCopy v1.0b1"
PERFORMER "Roland Kirk"
TITLE "Gifts And Messages"
FILE "Roland Kirk - Gifts And Messages.flac" WAVE
TRACK 01 AUDIO
TITLE "Ronnie's Intro"
PERFORMER "Roland Kirk"
INDEX 01 00:00:00
TRACK 02 AUDIO
TITLE "Bags' Groove"
PERFORMER "Roland Kirk"
INDEX 01 00:17:65
TRACK 03 AUDIO
TITLE "Roland's Intro"
PERFORMER "Roland Kirk"
INDEX 01 12:25:10
TRACK 04 AUDIO
TITLE "It Might As Well Be Spring"
PERFORMER "Roland Kirk"
INDEX 01 14:48:12
TRACK 05 AUDIO
TITLE "(On A) Misty Night"
PERFORMER "Roland Kirk"
INDEX 01 21:18:32
TRACK 06 AUDIO
TITLE "Come Sunday"
PERFORMER "Roland Kirk"
INDEX 01 30:50:62
TRACK 07 AUDIO
TITLE "Avalon"
PERFORMER "Roland Kirk"
INDEX 01 36:34:70
TRACK 08 AUDIO
TITLE "My Ship"
PERFORMER "Roland Kirk"
INDEX 01 46:22:65
TRACK 09 AUDIO
TITLE "A Stritch In Time"
PERFORMER "Roland Kirk"
INDEX 00 53:06:07
INDEX 01 53:19:50
TRACK 10 AUDIO
TITLE "Gifts And Messages"
PERFORMER "Roland Kirk"
INDEX 01 63:20:50
TRACK 11 AUDIO
TITLE "Reeling And Rhyming"
PERFORMER "Roland Kirk"
INDEX 01 75:57:45
Приватный:
Нет (DHT включён)
Размер:
443.51 Мб (465,054,868 байт) » файлов: 11
Участники:
0 раздают, 0 качают (0 участников всего)
Внешние участники:
1 раздают, 0 качают (1 участников всего) [ Обновить ]
No seeders - write personal message to M0p94ok. Нет сидеров - пишите в личку M0p94ok.
00:41
124
Нет комментариев. Ваш будет первым!