Поиск

(Hard Bop / Post-Bop / Stunt Records) Jakob Dinesen Quartet feat.: Paul Motian / Kurt Rosenwinkel (Anders Christensen, Ben Besiakov, Nils Bo Davidsen, Jeppe Gram) - Around - 1999, FLAC (tracks+.cue), lossless

(Hard Bop / Post-Bop / Stunt Records) Jakob Dinesen Quartet feat.: Paul Motian / Kurt Rosenwinkel (Anders Christensen, Ben Besiakov, Nils Bo Davidsen, Jeppe Gram) - Around - 1999, FLAC (tracks+.cue), lossless
Треклист:
Jakob Dinesen Quartet feat.: Paul Motian / Kurt Rosenwinkel - Around
Жанр: Hard Bop / Post-Bop
Страна-производитель диска: Denmark
Год издания диска: 1999
Издатель (лейбл): Stunt Records
Номер по каталогу: STUCD 19919
Аудиокодек: FLAC (*.flac)
Тип рипа: tracks+.cue
Битрейт аудио: lossless
Продолжительность: 00:52:16
Источник (релизер): what.cd / спасибо CmdrChesticle
Наличие сканов в содержимом раздачи: нет
Треклист:
1. Ask Me Now (Thelonious Monk) (7:32)
2. Once Around the Park (Paul Motian) (6:08)
3. Criss-Cross (Thelonious Monk) (5:22)
4. Work (Thelonious Monk) (4:34)
5. Very Early (Bill Evans) (7:29)
6. Cotton Tail (Duke Ellington) (3:40)
7. Around (Jakob Dinesen) (8:13)
8. In Walked Bud (Thelonious Monk) (8:58)
Доп. информация:
Musicians:
Jakob Dinesen - tenor saxophone
Kurt Rosenwinkel - guitar
Anders Christensen - bass
Paul Motian - drums
on track "In Walked Bud":
Jakob Dinesen - tenor saxophone
Ben Besiakov - piano
Nils Bo Davidsen - bass
Jeppe Gram - drums
Recorded at Sound On Sound Studio, New York, May 13th 1999
"In Walked Bud" recorded live at The Recreation Center, Copenhagen, January 23rd 1999
Jakob Dinesen Quartet - Around allmusic.com
 
... photo ...
 
Лог создания рипа
X Lossless Decoder version 20110924 (136.3)
XLD extraction logfile from 2011-10-28 16:06:27 +0000
Jakob Dinesen Quartet / Around
Used drive : MATSHITA DVD-R UJ-8A8 (revision HA13)
Ripper mode : XLD Secure Ripper
Disable audio cache : OK for the drive with a cache less than 1375KiB
Make use of C2 pointers : NO
Read offset correction : 102
Max retry count : 100
Gap status : Analyzed, Appended (except HTOA)
TOC of the extracted CD
Track | Start | Length | Start sector | End sector
---------------------------------------------------------
1 | 00:00:00 | 07:32:52 | 0 | 33951
2 | 07:32:52 | 06:08:03 | 33952 | 61554
3 | 13:40:55 | 05:22:65 | 61555 | 85769
4 | 19:03:45 | 04:34:39 | 85770 | 106358
5 | 23:38:09 | 07:29:59 | 106359 | 140092
6 | 31:07:68 | 03:40:23 | 140093 | 156615
7 | 34:48:16 | 08:13:58 | 156616 | 193648
8 | 43:01:74 | 08:58:30 | 193649 | 234028
AccurateRip Summary
Track 01 : OK (AR2, confidence 2)
Track 02 : OK (AR2, confidence 2)
Track 03 : OK (AR2, confidence 2)
Track 04 : OK (AR2, confidence 2)
Track 05 : OK (AR2, confidence 2)
Track 06 : OK (AR2, confidence 2)
Track 07 : OK (AR2, confidence 2)
Track 08 : OK (AR2, confidence 2)
->All tracks accurately ripped.
All Tracks
Album gain : -1.24 dB
Peak : 0.989838
Statistics
Read error : 0
Jitter error (maybe fixed) : 0
Retry sector count : 0
Damaged sector count : 0
Track 01
Filename : /Users/ianwolff/Downloads/torrent seeding/Jakob Dinesen Quartet - Around (1999) [FLAC]/01 Ask Me Now.flac
Pre-gap length : 00:02:00
Track gain : 0.83 dB
Peak : 0.924774
CRC32 hash (test run) : 91116B58
CRC32 hash : 91116B58
CRC32 hash (skip zero) : A235CD7E
AccurateRip signature : D994231B
->Accurately ripped! (AR2, confidence 2)
Statistics
Read error : 0
Jitter error (maybe fixed) : 0
Retry sector count : 0
Damaged sector count : 0
Track 02
Filename : /Users/ianwolff/Downloads/torrent seeding/Jakob Dinesen Quartet - Around (1999) [FLAC]/02 Once Around The Park.flac
Pre-gap length : 00:01:45
Track gain : 2.77 dB
Peak : 0.549866
CRC32 hash (test run) : 938594B1
CRC32 hash : 938594B1
CRC32 hash (skip zero) : 996548FD
AccurateRip signature : CF657955
->Accurately ripped! (AR2, confidence 2)
Statistics
Read error : 0
Jitter error (maybe fixed) : 0
Retry sector count : 0
Damaged sector count : 0
Track 03
Filename : /Users/ianwolff/Downloads/torrent seeding/Jakob Dinesen Quartet - Around (1999) [FLAC]/03 Criss Cross.flac
Pre-gap length : 00:01:45
Track gain : -0.11 dB
Peak : 0.941711
CRC32 hash (test run) : 91CC6B34
CRC32 hash : 91CC6B34
CRC32 hash (skip zero) : 49794CD0
AccurateRip signature : 59432E99
->Accurately ripped! (AR2, confidence 2)
Statistics
Read error : 0
Jitter error (maybe fixed) : 0
Retry sector count : 0
Damaged sector count : 0
Track 04
Filename : /Users/ianwolff/Downloads/torrent seeding/Jakob Dinesen Quartet - Around (1999) [FLAC]/04 Work.flac
Pre-gap length : 00:01:45
Track gain : -1.08 dB
Peak : 0.952362
CRC32 hash (test run) : 49D5791F
CRC32 hash : 49D5791F
CRC32 hash (skip zero) : BD4CA667
AccurateRip signature : EF8429B2
->Accurately ripped! (AR2, confidence 2)
Statistics
Read error : 0
Jitter error (maybe fixed) : 0
Retry sector count : 0
Damaged sector count : 0
Track 05
Filename : /Users/ianwolff/Downloads/torrent seeding/Jakob Dinesen Quartet - Around (1999) [FLAC]/05 Very Early.flac
Pre-gap length : 00:01:45
Track gain : 0.29 dB
Peak : 0.884430
CRC32 hash (test run) : DAAB9602
CRC32 hash : DAAB9602
CRC32 hash (skip zero) : 1D027417
AccurateRip signature : 8B9E3B3B
->Accurately ripped! (AR2, confidence 2)
Statistics
Read error : 0
Jitter error (maybe fixed) : 0
Retry sector count : 0
Damaged sector count : 0
Track 06
Filename : /Users/ianwolff/Downloads/torrent seeding/Jakob Dinesen Quartet - Around (1999) [FLAC]/06 Cottontail.flac
Pre-gap length : 00:01:45
Track gain : -1.66 dB
Peak : 0.989838
CRC32 hash (test run) : 71EABB38
CRC32 hash : 71EABB38
CRC32 hash (skip zero) : 37A9001B
AccurateRip signature : 3FC72EFC
->Accurately ripped! (AR2, confidence 2)
Statistics
Read error : 0
Jitter error (maybe fixed) : 0
Retry sector count : 0
Damaged sector count : 0
Track 07
Filename : /Users/ianwolff/Downloads/torrent seeding/Jakob Dinesen Quartet - Around (1999) [FLAC]/07 Around.flac
Pre-gap length : 00:01:45
Track gain : -4.18 dB
Peak : 0.983276
CRC32 hash (test run) : DCF94BA7
CRC32 hash : DCF94BA7
CRC32 hash (skip zero) : A776AF79
AccurateRip signature : A13878CD
->Accurately ripped! (AR2, confidence 2)
Statistics
Read error : 0
Jitter error (maybe fixed) : 0
Retry sector count : 0
Damaged sector count : 0
Track 08
Filename : /Users/ianwolff/Downloads/torrent seeding/Jakob Dinesen Quartet - Around (1999) [FLAC]/08 In Walked Bud.flac
Pre-gap length : 00:01:45
Track gain : 2.44 dB
Peak : 0.570038
CRC32 hash (test run) : 018902ED
CRC32 hash : 018902ED
CRC32 hash (skip zero) : DC351951
AccurateRip signature : C6051A2B
->Accurately ripped! (AR2, confidence 2)
Statistics
Read error : 0
Jitter error (maybe fixed) : 0
Retry sector count : 0
Damaged sector count : 0
No errors occurred
End of status report
 
Содержание индексной карты (.CUE)
TITLE "Around"
PERFORMER "Jakob Dinesen Quartet"
REM GENRE "Jazz"
REM DATE "1999"
REM DISCNUMBER 1
REM TOTALDISCS 1
REM DISCID 620C3008
REM REPLAYGAIN_ALBUM_GAIN -1.24 dB
REM REPLAYGAIN_ALBUM_PEAK 0.989838
FILE "01 Ask Me Now.flac" WAVE
TRACK 01 AUDIO
TITLE "Ask Me Now"
FLAGS DCP
REM REPLAYGAIN_TRACK_GAIN 0.83 dB
REM REPLAYGAIN_TRACK_PEAK 0.924774
INDEX 01 00:00:00
TRACK 02 AUDIO
TITLE "Once Around The Park"
FLAGS DCP
REM REPLAYGAIN_TRACK_GAIN 2.77 dB
REM REPLAYGAIN_TRACK_PEAK 0.549866
INDEX 00 07:31:07
FILE "02 Once Around The Park.flac" WAVE
INDEX 01 00:00:00
TRACK 03 AUDIO
TITLE "Criss Cross"
FLAGS DCP
REM REPLAYGAIN_TRACK_GAIN -0.11 dB
REM REPLAYGAIN_TRACK_PEAK 0.941711
INDEX 00 06:06:33
FILE "03 Criss Cross.flac" WAVE
INDEX 01 00:00:00
TRACK 04 AUDIO
TITLE "Work"
FLAGS DCP
REM REPLAYGAIN_TRACK_GAIN -1.08 dB
REM REPLAYGAIN_TRACK_PEAK 0.952362
INDEX 00 05:21:20
FILE "04 Work.flac" WAVE
INDEX 01 00:00:00
TRACK 05 AUDIO
TITLE "Very Early"
FLAGS DCP
REM REPLAYGAIN_TRACK_GAIN 0.29 dB
REM REPLAYGAIN_TRACK_PEAK 0.884430
INDEX 00 04:32:69
FILE "05 Very Early.flac" WAVE
INDEX 01 00:00:00
TRACK 06 AUDIO
TITLE "Cottontail"
FLAGS DCP
REM REPLAYGAIN_TRACK_GAIN -1.66 dB
REM REPLAYGAIN_TRACK_PEAK 0.989838
INDEX 00 07:28:14
FILE "06 Cottontail.flac" WAVE
INDEX 01 00:00:00
TRACK 07 AUDIO
TITLE "Around"
FLAGS DCP
REM REPLAYGAIN_TRACK_GAIN -4.18 dB
REM REPLAYGAIN_TRACK_PEAK 0.983276
INDEX 00 03:38:53
FILE "07 Around.flac" WAVE
INDEX 01 00:00:00
TRACK 08 AUDIO
TITLE "In Walked Bud"
FLAGS DCP
REM REPLAYGAIN_TRACK_GAIN 2.44 dB
REM REPLAYGAIN_TRACK_PEAK 0.570038
INDEX 00 08:12:13
FILE "08 In Walked Bud.flac" WAVE
INDEX 01 00:00:00
 
Audiochecker 2.0 beta (build 457)
AUDIOCHECKER v2.0 beta (build 457) - by Dester - opdester@freemail.hu
~~~~~~~~~~~~~~~~~~~~~~~~~~~~~~~~~~
Started at: среда, 01. 02. 2012. - 17:56.12
8 files found
1 -===- L:\rutracker.org_Audio CD\#_009_Jakob Dinesen Quartet - Around (1999)\Jakob Dinesen Quartet - Around (1999)\01 Ask Me Now.flac
Extracted successfully
Conclusion: this track is CDDA with probability 100%
Tempfile successfully deleted.
2 -===- L:\rutracker.org_Audio CD\#_009_Jakob Dinesen Quartet - Around (1999)\Jakob Dinesen Quartet - Around (1999)\02 Once Around The Park.flac
Extracted successfully
Conclusion: this track is CDDA with probability 100%
Tempfile successfully deleted.
3 -===- L:\rutracker.org_Audio CD\#_009_Jakob Dinesen Quartet - Around (1999)\Jakob Dinesen Quartet - Around (1999)\03 Criss Cross.flac
Extracted successfully
Conclusion: this track is CDDA with probability 99%
Tempfile successfully deleted.
4 -===- L:\rutracker.org_Audio CD\#_009_Jakob Dinesen Quartet - Around (1999)\Jakob Dinesen Quartet - Around (1999)\04 Work.flac
Extracted successfully
Conclusion: this track is CDDA with probability 100%
Tempfile successfully deleted.
5 -===- L:\rutracker.org_Audio CD\#_009_Jakob Dinesen Quartet - Around (1999)\Jakob Dinesen Quartet - Around (1999)\05 Very Early.flac
Extracted successfully
Conclusion: this track is CDDA with probability 100%
Tempfile successfully deleted.
6 -===- L:\rutracker.org_Audio CD\#_009_Jakob Dinesen Quartet - Around (1999)\Jakob Dinesen Quartet - Around (1999)\06 Cottontail.flac
Extracted successfully
Conclusion: this track is CDDA with probability 100%
Tempfile successfully deleted.
7 -===- L:\rutracker.org_Audio CD\#_009_Jakob Dinesen Quartet - Around (1999)\Jakob Dinesen Quartet - Around (1999)\07 Around.flac
Extracted successfully
Conclusion: this track is CDDA with probability 99%
Tempfile successfully deleted.
8 -===- L:\rutracker.org_Audio CD\#_009_Jakob Dinesen Quartet - Around (1999)\Jakob Dinesen Quartet - Around (1999)\08 In Walked Bud.flac
Extracted successfully
Conclusion: this track is CDDA with probability 100%
Tempfile successfully deleted.
Finished at: среда, 01. 02. 2012. - 18:02.03 (operation time: 0:05.51)
Download available for power users only.
20:20
428
Нет комментариев. Ваш будет первым!