Поиск

(Hard Bop, Post-Bop, Straight-ahead) [CD] The Reunion Legacy Band (Gary Bartz, Charles Tolliver, Grachan Moncur II, John Hicks, Mickey Bass, Billy Hart) - The Legacy (1990) - 2003, FLAC (tracks+.cue), lossless

(Hard Bop, Post-Bop, Straight-ahead) [CD] The Reunion Legacy Band (Gary Bartz, Charles Tolliver, Grachan Moncur II, John Hicks, Mickey Bass, Billy Hart) - The Legacy (1990) - 2003, FLAC (tracks+.cue), lossless
Треклист:
The Reunion Legacy Band / The Legacy
Жанр: Hard Bop, Straight-ahead
Носитель: CD
Год издания: 2003
Издатель (лейбл): Early Bird
Номер по каталогу: EBCD-102
Страна: USA
Аудиокодек: FLAC (*.flac)
Тип рипа: tracks+.cue
Битрейт аудио: lossless
Продолжительность: 00:50:40
Источник (релизер): voopa
Наличие сканов в содержимом раздачи: нет
Треклист:
1 Getting Sentimental Over You (George Bassman / George Bassom / Ned Washington) 7:24
2 Do a Funny Dance (Gary Bartz) 5:14
3 "A" for Pops (Grachan Moncur III) 6:35
4 Avotcja (John Hicks) 8:57
5 Franess (Charles Tolliver) 6:39
6 The Juggler (Mickey Bass) 9:41
7 Brother Rick (Mickey Bass) 6:07
Recorded in November 1990
 
Лог создания рипа
Exact Audio Copy V1.0 beta 3 from 29. August 2011
EAC extraction logfile from 24. March 2012, 14:50
The Reunion Legacy Band / The Legacy
Used drive : TSSTcorpDVD+-RW TS-H653F Adapter: 0 ID: 1
Read mode : Secure
Utilize accurate stream : Yes
Defeat audio cache : Yes
Make use of C2 pointers : No
Read offset correction : 6
Overread into Lead-In and Lead-Out : No
Fill up missing offset samples with silence : Yes
Delete leading and trailing silent blocks : No
Null samples used in CRC calculations : Yes
Used interface : Native Win32 interface for Win NT & 2000
Gap handling : Appended to previous track
Used output format : User Defined Encoder
Selected bitrate : 768 kBit/s
Quality : High
Add ID3 tag : No
Command line compressor : C:\Program Files\Exact Audio Copy\FLAC\FLAC.EXE
Additional command line options : -V -8 -T "artist=%artist%" -T "title=%title%" -T "album=%albumtitle%" -T "date=%year%" -T "tracknumber=%tracknr%" -T "genre=%genre%" %source%
TOC of the extracted CD
Track | Start | Length | Start sector | End sector
---------------------------------------------------------
1 | 0:00.00 | 7:24.60 | 0 | 33359
2 | 7:24.60 | 5:14.00 | 33360 | 56909
3 | 12:38.60 | 6:35.17 | 56910 | 86551
4 | 19:14.02 | 8:57.25 | 86552 | 126851
5 | 28:11.27 | 6:39.55 | 126852 | 156831
6 | 34:51.07 | 9:41.30 | 156832 | 200436
7 | 44:32.37 | 6:07.53 | 200437 | 228014
Track 1
Filename K:\EAC rips\The Reunion Legacy Band - The Legacy - 1991 [FLAC]\01 - Getting Sentimental Over You.wav
Pre-gap length 0:00:02.00
Peak level 100.0 %
Extraction speed 4.8 X
Track quality 100.0 %
Test CRC 0B83A411
Copy CRC 0B83A411
Accurately ripped (confidence 1) [493F4321] (AR v2)
Copy OK
Track 2
Filename K:\EAC rips\The Reunion Legacy Band - The Legacy - 1991 [FLAC]\02 - Do A Funny Dance.wav
Pre-gap length 0:00:04.04
Peak level 85.0 %
Extraction speed 5.3 X
Track quality 100.0 %
Test CRC 631CAED6
Copy CRC 631CAED6
Accurately ripped (confidence 1) [AFCF58D7] (AR v2)
Copy OK
Track 3
Filename K:\EAC rips\The Reunion Legacy Band - The Legacy - 1991 [FLAC]\03 - A For Pops.wav
Pre-gap length 0:00:05.06
Peak level 90.2 %
Extraction speed 6.1 X
Track quality 100.0 %
Test CRC 8FBB391F
Copy CRC 8FBB391F
Accurately ripped (confidence 1) [E2DA46B9] (AR v2)
Copy OK
Track 4
Filename K:\EAC rips\The Reunion Legacy Band - The Legacy - 1991 [FLAC]\04 - Avotcja.wav
Pre-gap length 0:00:01.26
Peak level 100.0 %
Extraction speed 6.9 X
Track quality 100.0 %
Test CRC 93CAAC66
Copy CRC 93CAAC66
Accurately ripped (confidence 1) [8570FFF0] (AR v2)
Copy OK
Track 5
Filename K:\EAC rips\The Reunion Legacy Band - The Legacy - 1991 [FLAC]\05 - Franess.wav
Pre-gap length 0:00:03.56
Peak level 100.0 %
Extraction speed 6.3 X
Track quality 99.9 %
Test CRC 2C252985
Copy CRC 2C252985
Accurately ripped (confidence 1) [ADF6762C] (AR v2)
Copy OK
Track 6
Filename K:\EAC rips\The Reunion Legacy Band - The Legacy - 1991 [FLAC]\06 - The Juggler.wav
Pre-gap length 0:00:02.06
Peak level 90.5 %
Extraction speed 7.3 X
Track quality 99.9 %
Test CRC B39A2B36
Copy CRC B39A2B36
Accurately ripped (confidence 1) [C14239D5] (AR v2)
Copy OK
Track 7
Filename K:\EAC rips\The Reunion Legacy Band - The Legacy - 1991 [FLAC]\07 - Brother Rick.wav
Pre-gap length 0:00:04.56
Peak level 100.0 %
Extraction speed 8.3 X
Track quality 100.0 %
Test CRC F371C80F
Copy CRC F371C80F
Accurately ripped (confidence 1) [C1D6E1DA] (AR v2)
Copy OK
All tracks accurately ripped
No errors occurred
End of status report
---- CUETools DB Plugin V2.1.3
[CTDB TOCID: 6mNe5zlQtyi3p7CEeHpshGQu.EE-] disk not present in database, Submit result: 6mNe5zlQtyi3p7CEeHpshGQu.EE- has been uploaded
==== Log checksum 430ED6A6517ABEFA7E4CCB6D28CF90E535EFB43F0E11A9987F7A156378DE66C5 ====
 
Содержание индексной карты (.CUE)
REM GENRE Jazz
REM DATE 1991
REM DISCID 5E0BE007
REM COMMENT "ExactAudioCopy v1.0b3"
FILE "01 - Getting Sentimental Over You.wav" WAVE
TRACK 01 AUDIO
INDEX 01 00:00:00
TRACK 02 AUDIO
INDEX 00 07:20:57
FILE "02 - Do A Funny Dance.wav" WAVE
INDEX 01 00:00:00
TRACK 03 AUDIO
INDEX 00 05:08:70
FILE "03 - A For Pops.wav" WAVE
INDEX 01 00:00:00
TRACK 04 AUDIO
INDEX 00 06:33:72
FILE "04 - Avotcja.wav" WAVE
INDEX 01 00:00:00
TRACK 05 AUDIO
INDEX 00 08:53:58
FILE "05 - Franess.wav" WAVE
INDEX 01 00:00:00
TRACK 06 AUDIO
INDEX 00 06:37:50
FILE "06 - The Juggler.wav" WAVE
INDEX 01 00:00:00
TRACK 07 AUDIO
INDEX 00 09:36:63
FILE "07 - Brother Rick.wav" WAVE
INDEX 01 00:00:00
 
Об альбоме (сборнике)
cdbaby.com
The Tradition of "The Reunion Legacy Band" was formulated by a group of guys who grew up together musically, played together for more than 30 years, and are always aspiring to keep alive the traditions initiated by the 'Be-bop' Masters: Miles, Bird, Dizzy, and Monk. Keeping, and maintaining the traditions, the flavors of the past, and then actively taking them forward into the future.....
The Band originally came together in 1990 to record "The Legacy"; Produced by Mickey Bass and released in 1991 on the "Early Bird" Record Label; the original Band members were: John Hicks, Gary Bartz, Charles Tolliver, Grachan Moncur III, Billy Hart and Mickey Bass - a unique, cooperative group.
During their 'formative' years, and living in Brooklyn; Grachen, Charles, and Mickey played a steady gig every Monday night; always with a different drummer and saxophonist. They were the final 'House-Band' at "The Coronet" before it closed..... At that time It was very difficult for younger artists to be leaders on ‘gigs’; the ‘Elder Statesmen’ were predominant in Jazz. However, the experience of working with older and wiser musicians gave Junior Jazz players the experience necessary to truly develop their own sound. Even before this trio migrated to the Mecca of jazz – New York City – they had honed their skills at the North End Lounge – a club in Baltimore owned by Gary Bartzs’ Father. Meanwhile, John Hicks was already living in New York and making ample use of the education he had acquired at Boston’s Berklee School of Music. The four men then played together every weekend. After a time, all these aspiring young musicians came together in New York City and continued to work with one another, on and off.
The Hero’s, who inspired them were; John Coltrane, Miles Davis, Sonny Rollins, Charlie Parker, Dizzy Gillespie, Thelonius Monk, and Bud Powell.
These inspired young journeymen, learned from the legacy of the past, lived in the present and leaned toward the future of jazz..... The resultant collaboration is something like a marriage could be; something old, something new, something borrowed.....and something blue.
Hence the Title of this Album: “The Reunion Legacy Band”
Of the original Band members; two have gone on to become Bandleaders in their own right, one is sadly no longer with us here; but the remaining three will be making a special, rare appearance, together once more, as a part of the Summer Concert Series for the 'serious' Jazz lover: "Jammin' on The Hudson";
Billy Hart, Grachan Moncur III and Mickey Bass; who in the great tradition of the ‘Be-bop’ Masters, of apprenticeship, now include; Josh Evans, who studied with Jackie McLean from the age of fifteen, Aaron Graves, who was first introduced to this Music through Mickey Bass and his “Jazz Ensemble”, whilst he was a student at the prestigious “Ellington School of the Arts”, Washington, D.C. Aaron brings his experience learned with ‘Little Jimmy Scott’. Charles Davis Jr. also joins this band.
Keeping, and maintaining the traditions, the ‘flavors’ of the past…..and then actively taking them forward…into the future.
Riverbank State Park is where 'it’s all happenin’ this Summer, with Our “Jammin’ on The Hudson” series;
Where Great Jazz Music comes to Life!
Posted by Mickey Bass
 
Состав
Gary Bartz (alto saxophone);
Charles Tolliver (trumpet);
Grachan Moncur II (trombone);
John Hicks (piano);
Mickey Bass (bass);
Billy Hart (drums).
Приватный:
Нет (DHT включён)
Размер:
304.59 Мб (319,382,265 байт) » файлов: 11
Участники:
0 раздают, 0 качают (0 участников всего)
Внешние участники:
5 раздают, 1 качают (6 участников всего) [ Обновить ]
For power users only: no seeders - write to support@pro-jazz.com. Для power user: нет сидеров - пишите на support@pro-jazz.com.
07:55
116
Нет комментариев. Ваш будет первым!