Поиск

(Hard Bop, Post-Bop) Rahsaan Roland Kirk - The Case of the 3 Sided Dream in Audio Color - 1975, FLAC (image+.cue), lossless

(Hard Bop, Post-Bop) Rahsaan Roland Kirk - The Case of the 3 Sided Dream in Audio Color - 1975, FLAC (image+.cue), lossless
Треклист:
Rahsaan Roland Kirk - The Case of the 3 Sided Dream in Audio Color
Жанр: Hard Bop, Post-Bop
Страна-производитель диска: США
Год издания: 1975
Издатель (лейбл): Atlantic Jazz/Warner
Номер по каталогу: 1674-2
Аудиокодек: FLAC (*.flac)
Тип рипа: image+.cue
Битрейт аудио: lossless
Продолжительность: 74:01
Источник (релизер): Mazeppa (hqshare)
Наличие сканов в содержимом раздачи: да
Треклист:
01. Conversation - 0:59
02. Bye Bye Blackbird (Dixon-Henderson) - 2:39
03. Horses (Monogram/Republic) - 0:19
04. High Heel Sneakers (Higginbotham) - 4:49
05. Dream - 0:51
06. Echoes of Primitive Ohio and Chili Dogs (Kirk) - 6:53
07. The Entertainer (Done in the Style of the Blues) (Joplin, arr. Eaton) - 6:02
08. Freaks for the Festival (Kirk) - 4:01
09. Dream - 1:30
10. Portrait of Those Beautiful Ladies (Kirk) - 6:23
11. Dream - 1:00
12. The Entertainer (Joplin, arr. Kirk) - 6:17
13. Dream - 1:03
14. Dream - 0:24
15. Portrait of Those Beautiful Ladies (Kirk) - 7:55
16. Dream - 0:52
17. Freaks for the Festival (Kirk) - 5:33
18. sesroH - 0:22
19. Bye Bye Blackbird (Dixon-Henderson) - 2:36
20. Conversation - 0:55
21. Telephone Conversation - 12:40
 
Лог создания рипа
Exact Audio Copy V0.99 prebeta 4 from 23. January 2008
EAC extraction logfile from 23. September 2008, 19:35
Rahsaan Roland Kirk / The Case of the 3 Sided Dream in Audio Color
Used drive : TSSTcorpCDDVDW SH-S223Q Adapter: 2 ID: 1
Read mode : Secure
Utilize accurate stream : Yes
Defeat audio cache : Yes
Make use of C2 pointers : No
Read offset correction : 6
Overread into Lead-In and Lead-Out : No
Fill up missing offset samples with silence : Yes
Delete leading and trailing silent blocks : No
Null samples used in CRC calculations : Yes
Used interface : Installed external ASPI interface
Used output format : User Defined Encoder
Selected bitrate : 768 kBit/s
Quality : High
Add ID3 tag : No
Command line compressor : C:\Program Files (x86)\Exact Audio Copy\FLAC\FLAC.EXE
Additional command line options : -V -8 -T "artist=%a" -T "title=%t" -T "album=%g" -T "date=%y" -T "tracknumber=%n" -T "genre=%m" %s
TOC of the extracted CD
Track | Start | Length | Start sector | End sector
---------------------------------------------------------
1 | 0:00.33 | 0:58.72 | 33 | 4454
2 | 0:59.30 | 2:38.73 | 4455 | 16377
3 | 3:38.28 | 0:19.32 | 16378 | 17834
4 | 3:57.60 | 4:48.58 | 17835 | 39492
5 | 8:46.43 | 0:51.15 | 39493 | 43332
6 | 9:37.58 | 6:52.40 | 43333 | 74272
7 | 16:30.23 | 6:01.47 | 74273 | 101394
8 | 22:31.70 | 4:00.53 | 101395 | 119447
9 | 26:32.48 | 1:30.20 | 119448 | 126217
10 | 28:02.68 | 6:23.02 | 126218 | 154944
11 | 34:25.70 | 0:59.55 | 154945 | 159424
12 | 35:25.50 | 6:17.10 | 159425 | 187709
13 | 41:42.60 | 1:03.08 | 187710 | 192442
14 | 42:45.68 | 0:23.50 | 192443 | 194217
15 | 43:09.43 | 7:55.10 | 194218 | 229852
16 | 51:04.53 | 0:51.62 | 229853 | 233739
17 | 51:56.40 | 5:32.38 | 233740 | 258677
18 | 57:29.03 | 0:21.65 | 258678 | 260317
19 | 57:50.68 | 2:35.47 | 260318 | 271989
20 | 60:26.40 | 0:54.60 | 271990 | 276099
21 | 61:21.25 | 12:39.53 | 276100 | 333077
Range status and errors
Selected range
Filename C:\Audio\WinRar\Rahsaan Roland Kirk - The Case Of The Three Sided Dream (1975)[FLAC Full Scans]\Rahsaan Roland Kirk - The Case of the 3 Sided Dream in Audio Color.wav
Peak level 99.9 %
Range quality 99.9 %
Test CRC 08D13BF0
Copy CRC 08D13BF0
Copy OK
No errors occurred
AccurateRip summary
Track 1 accurately ripped (confidence 1) [F9283C8C]
Track 2 accurately ripped (confidence 1) [35FFFF86]
Track 3 accurately ripped (confidence 1) [4AE3255F]
Track 4 accurately ripped (confidence 1) [FE1F2BDC]
Track 5 accurately ripped (confidence 1) [9AFB3756]
Track 6 accurately ripped (confidence 1) [311DE0C3]
Track 7 accurately ripped (confidence 1) [F9A998F9]
Track 8 accurately ripped (confidence 1) [2C947EF2]
Track 9 accurately ripped (confidence 1) [F1BF027D]
Track 10 accurately ripped (confidence 1) [B4D78541]
Track 11 accurately ripped (confidence 1) [A85AC5C1]
Track 12 accurately ripped (confidence 1) [1D4E4FC5]
Track 13 accurately ripped (confidence 1) [E606F514]
Track 14 accurately ripped (confidence 1) [D6CD4138]
Track 15 accurately ripped (confidence 1) [4C2B5DEA]
Track 16 accurately ripped (confidence 1) [0C816292]
Track 17 accurately ripped (confidence 1) [D2605573]
Track 18 accurately ripped (confidence 1) [C42C6A37]
Track 19 accurately ripped (confidence 1) [7005C55F]
Track 20 accurately ripped (confidence 1) [80F3AEBF]
Track 21 not present in database
20 track(s) accurately ripped
1 track(s) not present in the AccurateRip database
Some tracks could not be verified as accurate
End of status report
 
Содержание индексной карты (.CUE)
REM GENRE Jazz
REM DATE 1975
REM DISCID 31115915
REM COMMENT "ExactAudioCopy v0.99pb4"
PERFORMER "Rahsaan Roland Kirk"
TITLE "The Case of the 3 Sided Dream in Audio Color"
FILE "Rahsaan Roland Kirk - The Case of the 3 Sided Dream in Audio Color.wav" WAVE
TRACK 01 AUDIO
TITLE "Conversation"
PERFORMER "Rahsaan Roland Kirk"
INDEX 00 00:00:00
INDEX 01 00:00:33
TRACK 02 AUDIO
TITLE "Bye Bye Blackbird"
PERFORMER "Rahsaan Roland Kirk"
INDEX 01 00:59:30
TRACK 03 AUDIO
TITLE "Horses (Monogram/Republic)"
PERFORMER "Rahsaan Roland Kirk"
INDEX 01 03:38:28
TRACK 04 AUDIO
TITLE "High Heel Sneakers"
PERFORMER "Rahsaan Roland Kirk"
INDEX 01 03:57:60
TRACK 05 AUDIO
TITLE "Dream"
PERFORMER "Rahsaan Roland Kirk"
INDEX 01 08:46:43
TRACK 06 AUDIO
TITLE "Echoes of Primitive Ohio and Chili Dogs"
PERFORMER "Rahsaan Roland Kirk"
INDEX 01 09:37:58
TRACK 07 AUDIO
TITLE "The Entertainer (Done in the Style of the Blues)"
PERFORMER "Rahsaan Roland Kirk"
INDEX 01 16:30:23
TRACK 08 AUDIO
TITLE "Freaks for the Festival"
PERFORMER "Rahsaan Roland Kirk"
INDEX 01 22:31:70
TRACK 09 AUDIO
TITLE "Dream"
PERFORMER "Rahsaan Roland Kirk"
INDEX 01 26:32:48
TRACK 10 AUDIO
TITLE "Portrait of Those Beautiful Ladies"
PERFORMER "Rahsaan Roland Kirk"
INDEX 01 28:02:68
TRACK 11 AUDIO
TITLE "Dream"
PERFORMER "Rahsaan Roland Kirk"
INDEX 01 34:25:70
TRACK 12 AUDIO
TITLE "The Entertainer"
PERFORMER "Rahsaan Roland Kirk"
INDEX 01 35:25:50
TRACK 13 AUDIO
TITLE "Dream "
PERFORMER "Rahsaan Roland Kirk"
INDEX 01 41:42:60
TRACK 14 AUDIO
TITLE "Dream"
PERFORMER "Rahsaan Roland Kirk"
INDEX 01 42:45:68
TRACK 15 AUDIO
TITLE "Portrait of Those Beautiful Ladies"
PERFORMER "Rahsaan Roland Kirk"
INDEX 01 43:09:43
TRACK 16 AUDIO
TITLE "Dream"
PERFORMER "Rahsaan Roland Kirk"
INDEX 01 51:04:53
TRACK 17 AUDIO
TITLE "Freaks for the Festival"
PERFORMER "Rahsaan Roland Kirk"
INDEX 01 51:56:40
TRACK 18 AUDIO
TITLE "sesroH"
PERFORMER "Rahsaan Roland Kirk"
INDEX 01 57:29:03
TRACK 19 AUDIO
TITLE "Bye Bye Blackbird"
PERFORMER "Rahsaan Roland Kirk"
INDEX 01 57:50:68
TRACK 20 AUDIO
TITLE "Conversation"
PERFORMER "Rahsaan Roland Kirk"
INDEX 01 60:26:40
TRACK 21 AUDIO
TITLE "Telephone Conversation"
PERFORMER "Rahsaan Roland Kirk"
INDEX 01 61:21:25
 
Отчет CUETools
[CUETools log; Date: 20.11.2012 1:33:47; Version: 2.1.4]
Pregap length 00:00:33.
[CTDB TOCID: 4t3Er3kbvSVnmibp38TMRDCPQhg-] disk not present in database.
[AccurateRip ID: 0032487f-03157b3a-31115915] found.
Track [ CRC | V2 ] Status
01 [f9283c8c|fd30987b] (3+2/5) Accurately ripped
02 [35ffff86|6555e1fb] (3+0/3) Accurately ripped
03 [4ae3255f|a7f4cca2] (3+2/5) Accurately ripped
04 [fe1f2bdc|2beb25a7] (3+2/5) Accurately ripped
05 [9afb3756|6b7a169a] (3+2/5) Accurately ripped
06 [311de0c3|bb4b1d57] (3+2/5) Accurately ripped
07 [f9a998f9|c5241819] (3+0/3) Accurately ripped
08 [2c947ef2|a47762ec] (3+2/5) Accurately ripped
09 [f1bf027d|7382097d] (3+2/5) Accurately ripped
10 [b4d78541|ef8b4dc0] (3+2/5) Accurately ripped
11 [a85ac5c1|e85557a3] (3+2/5) Accurately ripped
12 [1d4e4fc5|77af05e3] (3+2/5) Accurately ripped
13 [e606f514|34486280] (3+2/5) Accurately ripped
14 [d6cd4138|42d276f2] (3+2/5) Accurately ripped
15 [4c2b5dea|c7cb508a] (3+2/5) Accurately ripped
16 [0c816292|bc77a16c] (3+2/5) Accurately ripped
17 [d2605573|2d829cc6] (3+2/5) Accurately ripped
18 [c42c6a37|692bd241] (3+2/5) Accurately ripped
19 [7005c55f|361a9b06] (3+2/5) Accurately ripped
20 [80f3aebf|61e49758] (3+2/5) Accurately ripped
21 [94179433|8e692d4a] (0+0/1) No match
Track Peak [ CRC32 ] [W/O NULL] [ LOG ]
-- 99,9 [08D13BF0] [1FEE64FA] CRC32
01 42,3 [FE23DD8E] [EFC4F4ED]
02 84,5 [58E55C8A] [7EAD81FE]
03 40,8 [D80E3A8D] [D20146AB]
04 93,0 [920E7AF4] [394E9EFA]
05 36,5 [27282815] [60937847]
06 84,9 [C6F56325] [DEE6724E]
07 90,2 [D5F06846] [1C21BC46]
08 95,0 [CC7CDF9E] [00D7E38C]
09 50,3 [4869252F] [5C94DB9A]
10 99,9 [A563845F] [F942336C]
11 46,7 [7D5EAD18] [C9FAA541]
12 92,0 [5C239A19] [F0E95292]
13 37,5 [D0DE0AF1] [D7C2F983]
14 35,3 [AC1CE924] [7E1419B6]
15 93,2 [410EC74E] [2B2C70CA]
16 45,2 [DCC226D5] [229EF77E]
17 89,3 [EAAC267B] [BF7774C6]
18 34,3 [A12B9DF5] [FA75A995]
19 69,0 [6DA4C27B] [4E8D649E]
20 61,0 [64339F0C] [43446B86]
21 68,4 [B3C87976] [8498F2DB]
 
Review by Thom Jurek
Perhaps I am an apologist for Rahsaan Roland Kirk, I don't know. If I am then I should be smacked, because he needed no one to make apologies for him. The Case of the 3-Sided Dream in Audio Color is a case in point. The namby-pamby jazz critics, those "serious" guys who look for every note to be in order before they'll say anything positive, can shove it on this one. They panned the hell out of it in 1975, claiming it was "indulgent." Okay. Which Kirk record wasn't? Excess was always the name of the game for Kirk, but so was the groove, and here on this three-sided double LP, groove is at the heart of everything. Surrounding himself with players like Cornell Dupree, Hugh McCracken, Richard Tee, Hilton Ruiz (whose playing on "Echoes of Primitive Ohio and Chili Dogs" is so greasy, so deliciously dirty it's enthralling), Steve Gadd, and others from that soul-jazz scene, it's obvious what you're gonna get, right? Nope. From his imitations of Miles Davis and John Coltrane on "Bye, Bye, Blackbird" to his screaming, funky read on "High Heel Sneakers" to his Delta-to-New-Orleans version of "The Entertainer," Kirk is deep in the groove. But the groove he moves through is one that is so large, so universal, deep, and serene, that it transcends all notions of commercialism versus innovation. Bottom line, even with the charming tape-recorded ramblings of his between tunes, this was his concept and it works like a voodoo charm. Here's one for the revisionists: This record jams.
 
Состав
Rahsaan Roland Kirk - tenor saxophone, bass saxophone, flute, trumpet, stritchaphone, manzello
Cornell Dupree, Keith Loving, Hugh McCracken - guitars
Arthur Jenkins, Hilton Ruiz, Richard Tee - keyboards
Francisco Centeno, Metathias Pearson, Bill Salter - basses
Sonny Brown, Steven Gadd, John Goldsmith - drums
Lawrence Killian - congas
Ralph MacDonald - congas, percussion
Pat Patrick: baritone saxophone
Recorded at Regent Sound Studios, New York.
Здесь - другое издание.
Приватный:
Нет (DHT включён)
Размер:
347.53 Мб (364,415,985 байт) » файлов: 12
Участники:
0 раздают, 0 качают (0 участников всего)
Внешние участники:
3 раздают, 1 качают (4 участников всего) [ Обновить ]
No seeders - write personal message to M0p94ok. Нет сидеров - пишите в личку M0p94ok.
09:27
111
Нет комментариев. Ваш будет первым!