Вы используете незарегистрированную версию компонента "Вкладки"!

Поиск

(Hard Bop, Post-Bop, Mainstream Jazz) Kenny Barron-John Hicks Quartet - Rhythm-A-Ning - 1990 [Candid: 79044], FLAC (tracks+.cue), lossless

(Hard Bop, Post-Bop, Mainstream Jazz) Kenny Barron-John Hicks Quartet - Rhythm-A-Ning - 1990 [Candid: 79044], FLAC (tracks+.cue), lossless
Треклист:
Kenny Barron-John Hicks Quartet - Rhythm-A-Ning
Жанр: Hard Bop, Post-Bop, Mainstream Jazz
Оригинальная запись: 1989 [live]
Год издания диска: 1990
Издатель (лейбл): Candid Productions Ltd.
Номер по каталогу: CCD79044
Аудиокодек: FLAC (*.flac)
Тип рипа: tracks+.cue
Битрейт аудио: lossless
Продолжительность: 1:08:42
Источник: Собственные рипы
Наличие сканов в содержимом раздачи: да
Треклист:
01. Sunshower - 12:44
02. Naima's Love Song - 14:08
03. Blue Monk - 14:17
04. After The Morning - 12:05
05. Ghost Of Yesterday - 5:37
06. Rhythm-A-Ning - 9:50
.
 
МУЗЫКАНТЫ
Kenny Barron - Piano
John Hicks - Piano
Walter Booker - Bass
Jimmy Cobb - Drums
 
Лог создания рипа
Exact Audio Copy V1.0 beta 3 from 29. August 2011
EAC extraction logfile from 23. November 2011, 15:50
Kenny Barron-John Hicks Quartet / Rhythm-A-Ning
Used drive : HL-DT-STDVD-RAM GSA-H55N Adapter: 0 ID: 2
Read mode : Secure
Utilize accurate stream : Yes
Defeat audio cache : Yes
Make use of C2 pointers : No
Read offset correction : 102
Overread into Lead-In and Lead-Out : Yes
Fill up missing offset samples with silence : Yes
Delete leading and trailing silent blocks : No
Null samples used in CRC calculations : Yes
Used interface : Native Win32 interface for Win NT & 2000
Gap handling : Appended to previous track
Used output format : User Defined Encoder
Selected bitrate : 128 kBit/s
Quality : High
Add ID3 tag : No
Command line compressor : G:\Program Files\Exact Audio Copy\Encoder\flac.exe
Additional command line options : -V -8 -T "Genre=%genre%" -T "Artist=%artist%" -T "Title=%title%" -T "Album=%albumtitle%" -T "Date=%year%" -T "Tracknumber=%tracknr%" -T "Comment=EAC1.0b3 FLAC -8" %source%
TOC of the extracted CD
Track | Start | Length | Start sector | End sector
---------------------------------------------------------
1 | 0:00.00 | 12:44.07 | 0 | 57306
2 | 12:44.07 | 14:08.30 | 57307 | 120936
3 | 26:52.37 | 14:17.28 | 120937 | 185239
4 | 41:09.65 | 12:05.22 | 185240 | 239636
5 | 53:15.12 | 5:36.60 | 239637 | 264896
6 | 58:51.72 | 9:49.55 | 264897 | 309126
Track 1
Filename F:\WAV\01 - Sunshower.wav
Pre-gap length 0:00:02.00
Peak level 100.0 %
Extraction speed 5.8 X
Track quality 100.0 %
Test CRC B69249F1
Copy CRC B69249F1
Accurately ripped (confidence 2) [D20A01A1] (AR v1)
Copy OK
Track 2
Filename F:\WAV\02 - Naima's Love Song.wav
Peak level 89.0 %
Extraction speed 7.2 X
Track quality 100.0 %
Test CRC DD5B83EB
Copy CRC DD5B83EB
Track not present in AccurateRip database
Copy OK
Track 3
Filename F:\WAV\03 - Blue Monk.wav
Peak level 91.2 %
Extraction speed 8.3 X
Track quality 100.0 %
Test CRC B35AA0DC
Copy CRC B35AA0DC
Track not present in AccurateRip database
Copy OK
Track 4
Filename F:\WAV\04 - After The Morning.wav
Peak level 99.3 %
Extraction speed 9.0 X
Track quality 100.0 %
Test CRC 61058BA7
Copy CRC 61058BA7
Track not present in AccurateRip database
Copy OK
Track 5
Filename F:\WAV\05 - Ghost Of Yesterday.wav
Peak level 31.0 %
Extraction speed 8.9 X
Track quality 100.0 %
Test CRC DF77A945
Copy CRC DF77A945
Accurately ripped (confidence 2) [42C136C8] (AR v1)
Copy OK
Track 6
Filename F:\WAV\06 - Rhythm-A-Ning.wav
Peak level 92.2 %
Extraction speed 8.0 X
Track quality 100.0 %
Test CRC 4EA0938E
Copy CRC 4EA0938E
Accurately ripped (confidence 2) [8AD144C0] (AR v1)
Copy OK
3 track(s) accurately ripped
3 track(s) not present in the AccurateRip database
Some tracks could not be verified as accurate
No errors occurred
End of status report
==== Log checksum 282A97481E1449E036E028F688B070CF216DCD2803A16EC91E4D02A63A83E471 ====
 
Содержание индексной карты (.CUE)
REM GENRE Jazz
REM DATE 1990
REM DISCID 51101906
REM COMMENT "ExactAudioCopy v1.0b3"
PERFORMER "Kenny Barron-John Hicks Quartet"
TITLE "Rhythm-A-Ning"
FILE "01 - Sunshower.wav" WAVE
TRACK 01 AUDIO
TITLE "Sunshower"
PERFORMER "Kenny Barron-John Hicks Quartet"
INDEX 01 00:00:00
FILE "02 - Naima's Love Song.wav" WAVE
TRACK 02 AUDIO
TITLE "Naima's Love Song"
PERFORMER "Kenny Barron-John Hicks Quartet"
INDEX 01 00:00:00
FILE "03 - Blue Monk.wav" WAVE
TRACK 03 AUDIO
TITLE "Blue Monk"
PERFORMER "Kenny Barron-John Hicks Quartet"
INDEX 01 00:00:00
FILE "04 - After The Morning.wav" WAVE
TRACK 04 AUDIO
TITLE "After The Morning"
PERFORMER "Kenny Barron-John Hicks Quartet"
INDEX 01 00:00:00
FILE "05 - Ghost Of Yesterday.wav" WAVE
TRACK 05 AUDIO
TITLE "Ghost Of Yesterday"
PERFORMER "Kenny Barron-John Hicks Quartet"
INDEX 01 00:00:00
FILE "06 - Rhythm-A-Ning.wav" WAVE
TRACK 06 AUDIO
TITLE "Rhythm-A-Ning"
PERFORMER "Kenny Barron-John Hicks Quartet"
INDEX 01 00:00:00
Хоть в титуле и присутствует слово "квартет", фактически этот альбом можно отнести по формату к пианным трио, только пиано здесь два. Или другой вариант - пианный дуэт с ритм-секцией. Оба варианта равноправны. В общем, получилось очень здорово. Видимо этот формат понравился и самому Бэррону, поскольку он повторил его спустя 2 года на этом же фестивале (Riverside Park Arts Festival, New York), но уже с другими музыкантами (делай тыц).
Any questions - support@pro-jazz.com.
Есть вопросы - support@pro-jazz.com
17:26
207
Нет комментариев. Ваш будет первым!