Поиск

(Hard Bop, Post-Bop) James Carter — The Real Quietstorm — 1995, FLAC (tracks+.cue), lossless

Треклист:
James Carter — The Real Quietstorm
Жанр: Hard Bop, Post-Bop
Год издания диска: 1995
Лейбл: Atlantic
Номер по каталогу: 82742
Аудиокодек: FLAC (*.flac)
Тип рипа: tracks+.cue
Битрейт аудио: lossless
Продолжительность: 58:50
Риппер: mishka1981
Сканы есть
Треклист:
01. 'Round Midnight (6:07)
02. You Never Told Me That You Care (6:42)
03. The Intimacy Of My Woman's Beautiful Eyes (8:47)
04. 1944 Stomp (4:56)
05. The Stevedore's Serenade (9:05)
06. Born To Be Blue (7:48)
07. Depp Throat Blues (6:08)
08. A Ballad For A Doll (5:08)
09. Eventide (4:09)
Personnel:
James Carter - ss, as, ts, bars, fl, bcl
Craig Taborn - p
Jaribu Shahid, Dave Holland - b
Leon Parker, Tani Tabbal - d
 
Лог создания рипа
Exact Audio Copy V1.0 beta 1 from 15. November 2010
EAC extraction logfile from 11. June 2011, 0:30
James Carter / The Real Quietstorm
Used drive : TSSTcorpCDDVDW TS-L633A Adapter: 3 ID: 0
Read mode : Secure
Utilize accurate stream : Yes
Defeat audio cache : Yes
Make use of C2 pointers : No
Read offset correction : 6
Overread into Lead-In and Lead-Out : No
Fill up missing offset samples with silence : Yes
Delete leading and trailing silent blocks : No
Null samples used in CRC calculations : Yes
Used interface : Installed external ASPI interface
Gap handling : Appended to previous track
Used output format : User Defined Encoder
Selected bitrate : 896 kBit/s
Quality : High
Add ID3 tag : No
Command line compressor : C:\Program Files\Exact Audio Copy\FLAC\FLAC.EXE
Additional command line options : -8 -V -T "ARTIST=%a" -T "TITLE=%t" -T "ALBUM=%g" -T "DATE=%y" -T "TRACKNUMBER=%n" -T "TOTALTRACKS=%x" -T "GENRE=%m" -T "ALBUMARTIST=%v" -T "ALBUM ARTIST=%v" -T "COMMENT=EAC Secure Mode, Test & Copy, AccurateRip, FLAC -8" %s
TOC of the extracted CD
Track | Start | Length | Start sector | End sector
---------------------------------------------------------
1 | 0:00.00 | 6:06.42 | 0 | 27491
2 | 6:06.42 | 6:41.60 | 27492 | 57626
3 | 12:48.27 | 8:47.23 | 57627 | 97174
4 | 21:35.50 | 4:55.72 | 97175 | 119371
5 | 26:31.47 | 9:05.28 | 119372 | 160274
6 | 35:37.00 | 7:47.45 | 160275 | 195344
7 | 43:24.45 | 6:08.12 | 195345 | 222956
8 | 49:32.57 | 5:08.28 | 222957 | 246084
9 | 54:41.10 | 4:09.12 | 246085 | 264771
Track 1
Filename C:\MY RIPS\01 - 'Round Midnight.wav
Pre-gap length 0:00:02.00
Peak level 100.0 %
Extraction speed 1.2 X
Track quality 100.0 %
Test CRC 2A587C41
Copy CRC 2A587C41
Accurately ripped (confidence 16) [1829BAC0]
Copy OK
Track 2
Filename C:\MY RIPS\02 - You Never Told Me That You Care.wav
Pre-gap length 0:00:01.57
Peak level 100.0 %
Extraction speed 1.2 X
Track quality 99.9 %
Test CRC B2FB8FE1
Copy CRC B2FB8FE1
Accurately ripped (confidence 17) [CDCCF9D2]
Copy OK
Track 3
Filename C:\MY RIPS\03 - The Intimacy Of My Woman's Beautiful Eyes.wav
Pre-gap length 0:00:02.50
Peak level 100.0 %
Extraction speed 1.4 X
Track quality 99.9 %
Test CRC FB576CD4
Copy CRC FB576CD4
Accurately ripped (confidence 17) [9F84F8DD]
Copy OK
Track 4
Filename C:\MY RIPS\04 - 1944 Stomp.wav
Pre-gap length 0:00:00.43
Peak level 100.0 %
Extraction speed 1.3 X
Track quality 99.9 %
Test CRC 6167E796
Copy CRC 6167E796
Accurately ripped (confidence 17) [E286E93B]
Copy OK
Track 5
Filename C:\MY RIPS\05 - The Stevedore's Serenade.wav
Pre-gap length 0:00:02.05
Peak level 100.0 %
Extraction speed 1.7 X
Track quality 99.9 %
Test CRC A0A7D170
Copy CRC A0A7D170
Accurately ripped (confidence 17) [2679F988]
Copy OK
Track 6
Filename C:\MY RIPS\06 - Born To Be Blue.wav
Pre-gap length 0:00:02.30
Peak level 87.7 %
Extraction speed 1.7 X
Track quality 99.9 %
Test CRC 3B5CEF00
Copy CRC 3B5CEF00
Accurately ripped (confidence 17) [23968E35]
Copy OK
Track 7
Filename C:\MY RIPS\07 - Depp Throat Blues.wav
Pre-gap length 0:00:02.10
Peak level 100.0 %
Extraction speed 2.1 X
Track quality 100.0 %
Test CRC B00F728D
Copy CRC B00F728D
Accurately ripped (confidence 17) [CB515F30]
Copy OK
Track 8
Filename C:\MY RIPS\08 - A Ballad For A Doll.wav
Pre-gap length 0:00:02.45
Peak level 87.8 %
Extraction speed 2.0 X
Track quality 100.0 %
Test CRC BAAFE337
Copy CRC BAAFE337
Accurately ripped (confidence 17) [470CBA48]
Copy OK
Track 9
Filename C:\MY RIPS\09 - Eventide.wav
Pre-gap length 0:00:02.35
Peak level 99.9 %
Extraction speed 0.7 X
Track quality 99.8 %
Test CRC DA8BF55C
Copy CRC DA8BF55C
Accurately ripped (confidence 16) [62BBC16A]
Copy OK
All tracks accurately ripped
No errors occurred
End of status report
==== Log checksum 5C06C0AFE1BA0CB3FC4A05C4C8DAE88C447B9C3FA06BCC02264BAAEDA310B6B8 ====
 
Содержание индексной карты (.CUE)
REM GENRE Jazz
REM DATE 1995
REM DISCID 890DCA09
REM COMMENT "ExactAudioCopy v1.0b1"
PERFORMER "James Carter"
TITLE "The Real Quietstorm"
FILE "01 - 'Round Midnight.wav" WAVE
TRACK 01 AUDIO
TITLE "'Round Midnight"
PERFORMER "James Carter"
INDEX 01 00:00:00
TRACK 02 AUDIO
TITLE "You Never Told Me That You Care"
PERFORMER "James Carter"
INDEX 00 06:04:60
FILE "02 - You Never Told Me That You Care.wav" WAVE
INDEX 01 00:00:00
TRACK 03 AUDIO
TITLE "The Intimacy Of My Woman's Beautiful Eyes"
PERFORMER "James Carter"
INDEX 00 06:39:10
FILE "03 - The Intimacy Of My Woman's Beautiful Eyes.wav" WAVE
INDEX 01 00:00:00
TRACK 04 AUDIO
TITLE "1944 Stomp"
PERFORMER "James Carter"
INDEX 00 08:46:55
FILE "04 - 1944 Stomp.wav" WAVE
INDEX 01 00:00:00
TRACK 05 AUDIO
TITLE "The Stevedore's Serenade"
PERFORMER "James Carter"
INDEX 00 04:53:67
FILE "05 - The Stevedore's Serenade.wav" WAVE
INDEX 01 00:00:00
TRACK 06 AUDIO
TITLE "Born To Be Blue"
PERFORMER "James Carter"
INDEX 00 09:02:73
FILE "06 - Born To Be Blue.wav" WAVE
INDEX 01 00:00:00
TRACK 07 AUDIO
TITLE "Depp Throat Blues"
PERFORMER "James Carter"
INDEX 00 07:45:35
FILE "07 - Depp Throat Blues.wav" WAVE
INDEX 01 00:00:00
TRACK 08 AUDIO
TITLE "A Ballad For A Doll"
PERFORMER "James Carter"
INDEX 00 06:05:42
FILE "08 - A Ballad For A Doll.wav" WAVE
INDEX 01 00:00:00
TRACK 09 AUDIO
TITLE "Eventide"
PERFORMER "James Carter"
INDEX 00 05:05:68
FILE "09 - Eventide.wav" WAVE
INDEX 01 00:00:00
Приватный:
Нет (DHT включён)
Размер:
318.70 Мб (334,185,374 байт) » файлов: 17
Участники:
0 раздают, 0 качают (0 участников всего)
Внешние участники:
1 раздают, 0 качают (1 участников всего) [ Обновить ]
For power users only: no seeders - write to support@pro-jazz.com. Для power user: нет сидеров - пишите на support@pro-jazz.com.
07:32
89
Нет комментариев. Ваш будет первым!