Вы используете незарегистрированную версию компонента "Вкладки"!

Поиск

(Hard-Bop, Post-Bop) [CD] John Hicks - Nightwind: An Erroll Garner Songbook - 1999, FLAC (image+.cue), lossless

(Hard-Bop, Post-Bop) [CD] John Hicks - Nightwind: An Erroll Garner Songbook - 1999, FLAC (image+.cue), lossless
Треклист:
John Hicks - Nightwind: An Erroll Garner Songbook
Жанр: Hard-Bop, Post-Bop
Носитель: CD
Страна-производитель диска (релиза): USA
Год издания: 1999
Издатель (лейбл): HighNote
Страна исполнителя (группы): USA
Аудиокодек: FLAC (*.flac)
Тип рипа: image+.cue
Битрейт аудио: lossless
Продолжительность: 53:21
Источник (релизер): Datiko
Наличие сканов в содержимом раздачи: нет
Треклист:
01 Tribute To EG
02 Misty
03 Paris Cries
04 Paris Lover
05 Nightwind
06 Left Bank Swing
07 Passing Through
08 Something Happens
09 Solitaire
10 It Gets Better Everytime
11 Dreamy
Recorded at Audiomation Studio, Pittsburgh, PA on June 21, 1997
 
Лог создания рипа
Exact Audio Copy V1.0 beta 6 from 9. April 2015
EAC extraction logfile from 22. February 2017, 14:59
John Hicks / Nightwind - An Erroll Garner Songbook
Used drive : MATSHITADVD-RAM UJ8HC Adapter: 0 ID: 0
Read mode : Secure
Utilize accurate stream : Yes
Defeat audio cache : Yes
Make use of C2 pointers : No
Read offset correction : 6
Overread into Lead-In and Lead-Out : No
Fill up missing offset samples with silence : Yes
Delete leading and trailing silent blocks : No
Null samples used in CRC calculations : Yes
Used interface : Installed external ASPI interface
Used output format : User Defined Encoder
Selected bitrate : 128 kBit/s
Quality : High
Add ID3 tag : No
Command line compressor : C:\Program Files (x86)\Exact Audio Copy\Flac\flac.exe
Additional command line options : -V -8 -T "Date=%year%" -T "Genre=%genre%" %source%
TOC of the extracted CD
Track | Start | Length | Start sector | End sector
---------------------------------------------------------
1 | 0:00.00 | 2:59.01 | 0 | 13425
2 | 2:59.01 | 6:23.48 | 13426 | 42198
3 | 9:22.49 | 4:24.16 | 42199 | 62014
4 | 13:46.65 | 5:25.62 | 62015 | 86451
5 | 19:12.52 | 3:29.73 | 86452 | 102199
6 | 22:42.50 | 3:40.24 | 102200 | 118723
7 | 26:22.74 | 4:04.57 | 118724 | 137080
8 | 30:27.56 | 7:06.50 | 137081 | 169080
9 | 37:34.31 | 4:58.74 | 169081 | 191504
10 | 42:33.30 | 4:02.29 | 191505 | 209683
11 | 46:35.59 | 6:44.56 | 209684 | 240039
Range status and errors
Selected range
Filename E:\EAC\John Hicks - Nightwind - An Erroll Garner Songbook\John Hicks - Nightwind - An Erroll Garner Songbook.wav
Peak level 96.6 %
Extraction speed 4.4 X
Range quality 100.0 %
Test CRC 3A549F50
Copy CRC 3A549F50
Copy OK
No errors occurred
AccurateRip summary
Track 1 accurately ripped (confidence 2) [7E334FDF] (AR v1)
Track 2 accurately ripped (confidence 2) [354DA677] (AR v1)
Track 3 accurately ripped (confidence 2) [C22966F9] (AR v1)
Track 4 accurately ripped (confidence 2) [9016539B] (AR v1)
Track 5 accurately ripped (confidence 2) [7DE8CCAA] (AR v1)
Track 6 accurately ripped (confidence 2) [B48B2456] (AR v1)
Track 7 accurately ripped (confidence 2) [C132308E] (AR v1)
Track 8 accurately ripped (confidence 2) [FA0F3D82] (AR v1)
Track 9 accurately ripped (confidence 2) [402EB046] (AR v1)
Track 10 accurately ripped (confidence 2) [B68663C1] (AR v1)
Track 11 accurately ripped (confidence 2) [49C097E8] (AR v1)
All tracks accurately ripped
End of status report
==== Log checksum 98E192647EDA938542524849434BDF3D4486997792E85E9D65CD5F0BE80D3B32 ====
 
Содержание индексной карты (.CUE)
REM GENRE Jazz
REM DATE 1999
REM DISCID A50C800B
REM COMMENT "ExactAudioCopy v1.0b6"
PERFORMER "John Hicks"
TITLE "Nightwind - An Erroll Garner Songbook"
FILE "John Hicks - Nightwind - An Erroll Garner Songbook.flac" WAVE
TRACK 01 AUDIO
TITLE "Tribute To EG"
PERFORMER "John Hicks"
INDEX 01 00:00:00
TRACK 02 AUDIO
TITLE "Misty"
PERFORMER "John Hicks"
INDEX 00 02:55:01
INDEX 01 02:59:01
TRACK 03 AUDIO
TITLE "Paris Cries"
PERFORMER "John Hicks"
INDEX 00 09:18:49
INDEX 01 09:22:49
TRACK 04 AUDIO
TITLE "Paris Lover"
PERFORMER "John Hicks"
INDEX 00 13:42:65
INDEX 01 13:46:65
TRACK 05 AUDIO
TITLE "Nightwind"
PERFORMER "John Hicks"
INDEX 00 19:08:52
INDEX 01 19:12:52
TRACK 06 AUDIO
TITLE "Left Bank Swing"
PERFORMER "John Hicks"
INDEX 00 22:38:50
INDEX 01 22:42:50
TRACK 07 AUDIO
TITLE "Passing Through"
PERFORMER "John Hicks"
INDEX 00 26:18:74
INDEX 01 26:22:74
TRACK 08 AUDIO
TITLE "Something Happens"
PERFORMER "John Hicks"
INDEX 00 30:23:56
INDEX 01 30:27:56
TRACK 09 AUDIO
TITLE "Solitaire"
PERFORMER "John Hicks"
INDEX 00 37:30:31
INDEX 01 37:34:31
TRACK 10 AUDIO
TITLE "It Gets Better Everytime"
PERFORMER "John Hicks"
INDEX 00 42:29:30
INDEX 01 42:33:30
TRACK 11 AUDIO
TITLE "Dreamy"
PERFORMER "John Hicks"
INDEX 00 46:31:59
INDEX 01 46:35:59
 
Состав
John Hicks - p
Dwayne Dolphin - b
Cecil Brooks III - dr
Any questions - support@pro-jazz.com.
Есть вопросы - support@pro-jazz.com
01:53
255
Нет комментариев. Ваш будет первым!