Поиск

(Hard Bop, Post-Bop) [CD] Ellis Marsalis Trio - On the Second Occasion - 2014, FLAC (tracks+.cue), lossless

(Hard Bop, Post-Bop) [CD] Ellis Marsalis Trio - On the Second Occasion - 2014, FLAC (tracks+.cue), lossless
Треклист:
Ellis Marsalis Trio - On the Second Occasion
Жанр: Hard Bop, Post-Bop
Носитель: CD
Страна-производитель диска: США
Год издания: 2014
Издатель (лейбл): ELM Records
Номер по каталогу: 19791
Аудиокодек: FLAC (*.flac)
Тип рипа: tracks+.cue
Битрейт аудио: lossless
Продолжительность: 68:18
Источник (релизер): agent77 (what)
Наличие сканов в содержимом раздачи: нет
Треклист:
01. Yesterdays (5:22)
02. Delilah (5:53)
03. The Breeze and I (4:26)
04. I Didn't Know What Time It Was (7:13)
05. Surrey with the Fringe on Top (8:44)
06. Things You Never Were (3:27)
07. Canadian Sunset (6:51)
08. The Breeze and I (Reprise) (4:41)
09. Will You Still Be Mine (4:19)
10. On Broadway (8:03)
11. Get Me to the Church on Time (6:10)
12. (Untitled) (3:09)
Состав:
Ellis Marsalis - piano
Bill Huntington, Roland Guerin (#5) - bass
Jason Marsalis - drums
Recorded at Ultrasonic Studios, New Orleans, LA on January 6-9, 2003.
 
Лог создания рипа
Exact Audio Copy V1.0 beta 3 from 29. August 2011
EAC extraction logfile from 27. October 2014, 12:34
Ellis Marsalis / On The Second Occasion
Used drive  : TSSTcorpCDDVDW SH-S223C   Adapter: 4  ID: 0
Read mode               : Secure
Utilize accurate stream : Yes
Defeat audio cache      : Yes
Make use of C2 pointers : No
Read offset correction                      : 697
Overread into Lead-In and Lead-Out          : No
Fill up missing offset samples with silence : Yes
Delete leading and trailing silent blocks   : No
Null samples used in CRC calculations       : Yes
Used interface                              : Native Win32 interface for Win NT & 2000
Gap handling                                : Appended to previous track
Used output format              : User Defined Encoder
Selected bitrate                : 1024 kBit/s
Quality                         : High
Add ID3 tag                     : No
Command line compressor         : C:\Program Files (x86)\Exact Audio Copy\Flac\flac.exe
Additional command line options : -8 -V -T "ARTIST=%artist%" -T "TITLE=%title%" -T "ALBUM=%albumtitle%" -T "DATE=%year%" -T "TRACKNUMBER=%tracknr%" -T "GENRE=%genre%" -T "PERFORMER=%albuminterpret%" -T "COMPOSER=%composer%" %haslyrics%--tag-from-file=LYRICS="%lyricsfile%"%haslyrics% -T "ALBUMARTIST=%albumartist%" -T "DISCNUMBER=%cdnumber%" -T "TOTALDISCS=%totalcds%" -T "TOTALTRACKS=%numtracks%" -T "COMMENT=%comment%" %source% -o %dest%
TOC of the extracted CD
     Track |   Start  |  Length  | Start sector | End sector
    ---------------------------------------------------------
        1  |  0:00.00 |  5:21.59 |         0    |    24133
        2  |  5:21.59 |  5:52.56 |     24134    |    50589
        3  | 11:14.40 |  4:26.24 |     50590    |    70563
        4  | 15:40.64 |  7:13.11 |     70564    |   103049
        5  | 22:54.00 |  8:44.08 |    103050    |   142357
        6  | 31:38.08 |  3:27.37 |    142358    |   157919
        7  | 35:05.45 |  6:51.22 |    157920    |   188766
        8  | 41:56.67 |  4:41.32 |    188767    |   209873
        9  | 46:38.24 |  4:18.38 |    209874    |   229261
       10  | 50:56.62 |  8:02.53 |    229262    |   265464
       11  | 58:59.40 |  6:09.57 |    265465    |   293196
       12  | 65:09.22 |  3:09.08 |    293197    |   307379
Track  1
     Filename G:\FLAC rips\Ellis Marsalis - On The Second Occasion [FLAC]\01 - Yesterdays.wav
     Pre-gap length  0:00:02.00
     Peak level 96.4 %
     Extraction speed 2.1 X
     Track quality 100.0 %
     Test CRC 70A3A843
     Copy CRC 70A3A843
     Track not present in AccurateRip database
     Copy OK
Track  2
     Filename G:\FLAC rips\Ellis Marsalis - On The Second Occasion [FLAC]\02 - Delilah.wav
     Pre-gap length  0:00:03.92
     Peak level 96.3 %
     Extraction speed 2.4 X
     Track quality 100.0 %
     Test CRC 0F9C9C94
     Copy CRC 0F9C9C94
     Track not present in AccurateRip database
     Copy OK
Track  3
     Filename G:\FLAC rips\Ellis Marsalis - On The Second Occasion [FLAC]\03 - The Breeze and I.wav
     Pre-gap length  0:00:03.46
     Peak level 96.4 %
     Extraction speed 2.6 X
     Track quality 100.0 %
     Test CRC 2E22B914
     Copy CRC 2E22B914
     Track not present in AccurateRip database
     Copy OK
Track  4
     Filename G:\FLAC rips\Ellis Marsalis - On The Second Occasion [FLAC]\04 - I Didn't Know What Time It Was.wav
     Pre-gap length  0:00:02.88
     Peak level 96.5 %
     Extraction speed 2.9 X
     Track quality 100.0 %
     Test CRC 758DAC6C
     Copy CRC 758DAC6C
     Track not present in AccurateRip database
     Copy OK
Track  5
     Filename G:\FLAC rips\Ellis Marsalis - On The Second Occasion [FLAC]\05 - Surrey With The Fringe On Top.wav
     Pre-gap length  0:00:36.21
     Peak level 96.5 %
     Extraction speed 3.3 X
     Track quality 100.0 %
     Test CRC 155D982B
     Copy CRC 155D982B
     Track not present in AccurateRip database
     Copy OK
Track  6
     Filename G:\FLAC rips\Ellis Marsalis - On The Second Occasion [FLAC]\06 - Things You Never Were.wav
     Pre-gap length  0:00:02.66
     Peak level 96.4 %
     Extraction speed 0.4 X
     Track quality 99.9 %
     Test CRC 051E2684
     Copy CRC 051E2684
     Track not present in AccurateRip database
     Copy OK
Track  7
     Filename G:\FLAC rips\Ellis Marsalis - On The Second Occasion [FLAC]\07 - Canadian Sunset.wav
     Pre-gap length  0:01:24.76
     Peak level 96.4 %
     Extraction speed 3.6 X
     Track quality 100.0 %
     Test CRC 986EB719
     Copy CRC 986EB719
     Track not present in AccurateRip database
     Copy OK
Track  8
     Filename G:\FLAC rips\Ellis Marsalis - On The Second Occasion [FLAC]\08 - Breeze and I (Reprise).wav
     Pre-gap length  0:00:03.05
     Peak level 96.5 %
     Extraction speed 3.6 X
     Track quality 100.0 %
     Test CRC 0FF6176E
     Copy CRC 0FF6176E
     Track not present in AccurateRip database
     Copy OK
Track  9
     Filename G:\FLAC rips\Ellis Marsalis - On The Second Occasion [FLAC]\09 - Will You Still Be Mine.wav
     Pre-gap length  0:00:02.96
     Peak level 96.5 %
     Extraction speed 3.7 X
     Track quality 100.0 %
     Test CRC A9A5C2D7
     Copy CRC A9A5C2D7
     Track not present in AccurateRip database
     Copy OK
Track 10
     Filename G:\FLAC rips\Ellis Marsalis - On The Second Occasion [FLAC]\10 - On Broadway.wav
     Pre-gap length  0:00:03.93
     Peak level 96.6 %
     Extraction speed 0.9 X
     Track quality 99.9 %
     Test CRC 83907A7F
     Copy CRC 83907A7F
     Track not present in AccurateRip database
     Copy OK
Track 11
     Filename G:\FLAC rips\Ellis Marsalis - On The Second Occasion [FLAC]\11 - Get Me To The Church On Time.wav
     Pre-gap length  0:01:48.01
     Peak level 96.5 %
     Extraction speed 4.2 X
     Track quality 100.0 %
     Test CRC A139FA48
     Copy CRC A139FA48
     Track not present in AccurateRip database
     Copy OK
Track 12
     Filename G:\FLAC rips\Ellis Marsalis - On The Second Occasion [FLAC]\12 - (Untitled).wav
     Pre-gap length  0:00:04.04
     Peak level 96.5 %
     Extraction speed 4.0 X
     Track quality 100.0 %
     Test CRC A502C25A
     Copy CRC A502C25A
     Track not present in AccurateRip database
     Copy OK
None of the tracks are present in the AccurateRip database
No errors occurred
End of status report
---- CUETools DB Plugin V2.1.3
[CTDB TOCID: rd_w8ghpYaVyUUx4ZWT.fP38Gls-] disk not present in database, Submit result: rd_w8ghpYaVyUUx4ZWT.fP38Gls- has been uploaded
==== Log checksum 3C5F750E87517B2DA0AD01FADB5D67218ED003F94BF62E972C80E913DBCE03AE ====
 
 
Содержание индексной карты (.CUE)
REM GENRE Jazz
REM DATE 2014
REM DISCID 9610020C
REM COMMENT "ExactAudioCopy v1.0b3"
PERFORMER "Ellis Marsalis"
TITLE "On the Second Occasion"
FILE "01 - Yesterdays.wav" WAVE
  TRACK 01 AUDIO
    TITLE "Yesterdays"
    PERFORMER "Ellis Marsalis"
    INDEX 01 00:00:00
  TRACK 02 AUDIO
    TITLE "Delilah"
    PERFORMER "Ellis Marsalis"
    INDEX 00 05:17:65
FILE "02 - Delilah.wav" WAVE
    INDEX 01 00:00:00
  TRACK 03 AUDIO
    TITLE "The Breeze and I"
    PERFORMER "Ellis Marsalis"
    INDEX 00 05:49:21
FILE "03 - The Breeze and I.wav" WAVE
    INDEX 01 00:00:00
  TRACK 04 AUDIO
    TITLE "I Didn't Know What Time It Was"
    PERFORMER "Ellis Marsalis"
    INDEX 00 04:23:33
FILE "04 - I Didn't Know What Time It Was.wav" WAVE
    INDEX 01 00:00:00
  TRACK 05 AUDIO
    TITLE "Surrey with the Fringe on Top"
    PERFORMER "Ellis Marsalis"
    INDEX 00 06:36:70
FILE "05 - Surrey with the Fringe on Top.wav" WAVE
    INDEX 01 00:00:00
  TRACK 06 AUDIO
    TITLE "Things You Never Were"
    PERFORMER "Ellis Marsalis"
    INDEX 00 08:41:33
FILE "06 - Things You Never Were.wav" WAVE
    INDEX 01 00:00:00
  TRACK 07 AUDIO
    TITLE "Canadian Sunset"
    PERFORMER "Ellis Marsalis"
    INDEX 00 02:02:55
FILE "07 - Canadian Sunset.wav" WAVE
    INDEX 01 00:00:00
  TRACK 08 AUDIO
    TITLE "The Breeze and I (Reprise)"
    PERFORMER "Ellis Marsalis"
    INDEX 00 06:48:18
FILE "08 - The Breeze and I (Reprise).wav" WAVE
    INDEX 01 00:00:00
  TRACK 09 AUDIO
    TITLE "Will You Still Be Mine"
    PERFORMER "Ellis Marsalis"
    INDEX 00 04:38:35
FILE "09 - Will You Still Be Mine.wav" WAVE
    INDEX 01 00:00:00
  TRACK 10 AUDIO
    TITLE "On Broadway"
    PERFORMER "Ellis Marsalis"
    INDEX 00 04:14:43
FILE "10 - On Broadway.wav" WAVE
    INDEX 01 00:00:00
  TRACK 11 AUDIO
    TITLE "Get Me to the Church on Time"
    PERFORMER "Ellis Marsalis"
    INDEX 00 06:14:52
FILE "11 - Get Me to the Church on Time.wav" WAVE
    INDEX 01 00:00:00
  TRACK 12 AUDIO
    TITLE "(Untitled)"
    PERFORMER "Ellis Marsalis"
    INDEX 00 06:05:54
FILE "12 - (Untitled).wav" WAVE
    INDEX 01 00:00:00
 
 
Отчет CUETools
[CUETools log; Date: 27.10.2014 13:56:23; Version: 2.1.5]
[CTDB TOCID: rd_w8ghpYaVyUUx4ZWT.fP38Gls-] found.
Track | CTDB Status
  1   | (1/1) Accurately ripped
  2   | (1/1) Accurately ripped
  3   | (1/1) Accurately ripped
  4   | (1/1) Accurately ripped
  5   | (1/1) Accurately ripped
  6   | (1/1) Accurately ripped
  7   | (1/1) Accurately ripped
  8   | (1/1) Accurately ripped
  9   | (1/1) Accurately ripped
 10   | (1/1) Accurately ripped
 11   | (1/1) Accurately ripped
 12   | (1/1) Accurately ripped
[AccurateRip ID: 001f2ac1-01232fa6-9610020c] disk not present in database.
Track Peak [ CRC32  ] [W/O NULL] [  LOG   ]
 --   96,6 [3C29F306] [DEFC113B]
 01   96,4 [70A3A843] [31FB9149]   CRC32
 02   96,3 [0F9C9C94] [01E7C678]   CRC32
 03   96,4 [2E22B914] [C457693E]   CRC32
 04   96,5 [758DAC6C] [C8D556BB]   CRC32
 05   96,5 [155D982B] [172B29D8]   CRC32
 06   96,4 [051E2684] [CB6D3B83]   CRC32
 07   96,4 [986EB719] [3DE81CAB]   CRC32
 08   96,5 [0FF6176E] [17F729B2]   CRC32
 09   96,5 [A9A5C2D7] [226E5198]   CRC32
 10   96,6 [83907A7F] [B730D04A]   CRC32
 11   96,5 [A139FA48] [014A769E]   CRC32
 12   96,5 [A502C25A] [16BC24C6]   CRC32
 
 
Review by Geraldine Wyckoff
Drive, lightning speed and boogie aren’t exactly terms generally associated with the style of pianist Ellis Marsalis. He’s more often thought of as an elegant player who executes each note with consideration and likes to swing. On the Second Occasion, a recently released album that was recorded in 2003, listeners have the opportunity to enjoy the Marsalis they might expect and experience the lesser-known side of this important artist.
He’s got his ace rhythm section with him on this adventure—the beautifully articulate Bill Huntington, Marsalis’ longtime bassist who moved following Katrina, and his talented son, drummer Jason Marsalis. The rapid-fire pace of the disc’s only original, Marsalis’ “Things You Never Were,” is no challenge for this tight-knit trio—they fly.
The album’s most surprising—and somewhat amusing—tune is the group’s interpretation of “On Broadway.” Yes, the song the Drifters made famous in 1963. It’s got a dance beat that moves from a little Latin groove to a boogie. Jason serves up a most unusual drum solo that is almost reminiscent of a marching-band drum cadence. On the familiar chorus, Marsalis manages to play a duet with himself and after a pause the song flows into a warm ballad.
Of course, Marsalis offers some moments of beauty as heard on the gentle sway of “Delilah” that are enriched by the album’s superior sound quality. On the Second Occasion continues and adds to Marsalis’ musical legacy.
По всем вопросам пишите личное сообщение пользователю M0p94ok.
11:38
349
Нет комментариев. Ваш будет первым!