Поиск

(Hard Bop, Post-Bop) Bobby Hutcherson - Dialogue - 1965 (1987), FLAC (tracks+.cue), lossless

(Hard Bop, Post-Bop) Bobby Hutcherson - Dialogue - 1965 (1987), FLAC (tracks+.cue), lossless
Треклист:
Bobby Hutcherson - Dialogue
Жанр: Hard Bop, Post-Bop
Страна-производитель диска: США
Год издания: 1965 (1987)
Издатель (лейбл): Blue Note
Номер по каталогу: CDP 7 46537 2
Аудиокодек: FLAC (*.flac)
Тип рипа: tracks+.cue
Битрейт аудио: lossless
Продолжительность: 45:28
Источник (релизер): Bujumbura (what)
Наличие сканов в содержимом раздачи: да
Треклист:
01. Catta (Hill) - 7:22
02. Idle While (Chambers) - 6:39
03. Les Noirs Marchant (Hill) - 6:41
04. Dialogue (Chambers) - 10:02
05. Ghetto Lights (Hill) - 6:16
06. Jasper (Hill) - 8:28
Состав:
Freddie Hubbard - trumpet
Bobby Hutcherson - vibes, marimba
Sam Rivers - tenor saxophone, soprano saxophone, bass clarinet, flute
Andrew Hill - piano
Richard Davis - bass
Joe Chambers - drums
Recorded at the Van Gelder Studio, Englewood Cliffs, NJ on April 3, 1965.
Digital transfer by Ron McMaster.
 
Лог создания рипа
Exact Audio Copy V0.99 prebeta 4 from 23. January 2008
EAC extraction logfile from 10. September 2008, 15:56
Bobby Hutcherson / Dialogue
Used drive  : TSSTcorpCDDVDW SH-S202H   Adapter: 3  ID: 0
Read mode               : Secure
Utilize accurate stream : Yes
Defeat audio cache      : Yes
Make use of C2 pointers : No
Read offset correction                      : 6
Overread into Lead-In and Lead-Out          : No
Fill up missing offset samples with silence : Yes
Delete leading and trailing silent blocks   : No
Null samples used in CRC calculations       : Yes
Used interface                              : Native Win32 interface for Win NT & 2000
Gap handling                                : Appended to previous track
Used output format : Internal WAV Routines
Sample format      : 44.100 Hz; 16 Bit; Stereo
TOC of the extracted CD
     Track |   Start  |  Length  | Start sector | End sector
    ---------------------------------------------------------
        1  |  0:00.00 |  7:21.48 |         0    |    33122
        2  |  7:21.48 |  6:38.67 |     33123    |    63039
        3  | 14:00.40 |  6:41.20 |     63040    |    93134
        4  | 20:41.60 | 10:02.35 |     93135    |   138319
        5  | 30:44.20 |  6:16.08 |    138320    |   166527
        6  | 37:00.28 |  8:27.50 |    166528    |   204602
Track  1
     Filename C:\Documents and Settings\peter\My Documents\0 NYP\z BACK TO FLAC\Dialogue\01 Catta.wav
     Pre-gap length  0:00:02.00
     Peak level 94.1 %
     Track quality 99.9 %
     Copy CRC 255FDB4D
     Copy OK
Track  2
     Filename C:\Documents and Settings\peter\My Documents\0 NYP\z BACK TO FLAC\Dialogue\02 Idle While.wav
     Pre-gap length  0:00:03.20
     Peak level 77.1 %
     Track quality 100.0 %
     Copy CRC E7F8E075
     Copy OK
Track  3
     Filename C:\Documents and Settings\peter\My Documents\0 NYP\z BACK TO FLAC\Dialogue\03 Les Noirs Marchant.wav
     Pre-gap length  0:00:02.37
     Peak level 73.6 %
     Track quality 100.0 %
     Copy CRC 63C52A0D
     Copy OK
Track  4
     Filename C:\Documents and Settings\peter\My Documents\0 NYP\z BACK TO FLAC\Dialogue\04 Dialogue.wav
     Pre-gap length  0:00:02.00
     Peak level 79.1 %
     Track quality 100.0 %
     Copy CRC 83BB00DB
     Copy OK
Track  5
     Filename C:\Documents and Settings\peter\My Documents\0 NYP\z BACK TO FLAC\Dialogue\05 Ghetto Lights.wav
     Pre-gap length  0:00:02.02
     Peak level 68.2 %
     Track quality 100.0 %
     Copy CRC 70C325B8
     Copy OK
Track  6
     Filename C:\Documents and Settings\peter\My Documents\0 NYP\z BACK TO FLAC\Dialogue\06 Jasper.wav
     Pre-gap length  0:00:01.63
     Peak level 85.5 %
     Track quality 100.0 %
     Copy CRC 2889C8AE
     Copy OK
No errors occurred
End of status report
 
 
Содержание индексной карты (.CUE)
REM DISCID 400AA806
REM COMMENT "ExactAudioCopy v0.99pb4"
PERFORMER "Bobby Hutcherson"
TITLE "Dialogue"
FILE "01 - Catta.wav" WAVE
  TRACK 01 AUDIO
    TITLE "Catta"
    PERFORMER "Bobby Hutcherson"
    INDEX 01 00:00:00
  TRACK 02 AUDIO
    TITLE "Idle While"
    PERFORMER "Bobby Hutcherson"
    INDEX 00 07:18:28
FILE "02 - Idle While.wav" WAVE
    INDEX 01 00:00:00
  TRACK 03 AUDIO
    TITLE "Les Noirs Marchant"
    PERFORMER "Bobby Hutcherson"
    INDEX 00 06:36:30
FILE "03 - Les Noirs Marchant.wav" WAVE
    INDEX 01 00:00:00
  TRACK 04 AUDIO
    TITLE "Dialogue"
    PERFORMER "Bobby Hutcherson"
    INDEX 00 06:39:20
FILE "04 - Dialogue.wav" WAVE
    INDEX 01 00:00:00
  TRACK 05 AUDIO
    TITLE "Ghetto Lights"
    PERFORMER "Bobby Hutcherson"
    INDEX 00 10:00:33
FILE "05 - Ghetto Lights.wav" WAVE
    INDEX 01 00:00:00
  TRACK 06 AUDIO
    TITLE "Jasper"
    PERFORMER "Bobby Hutcherson"
    INDEX 00 06:14:20
FILE "06 - Jasper.wav" WAVE
    INDEX 01 00:00:00
 
 
Отчет CUETools
[CUETools log; Date: 11.04.2013 4:33:50; Version: 2.1.4]
[CTDB TOCID: eABZ_u7QJuewS7RIzl_JY2.MO78-] found.
Track | CTDB Status
  1   | (1/1) Accurately ripped
  2   | (1/1) Accurately ripped
  3   | (1/1) Accurately ripped
  4   | (1/1) Accurately ripped
  5   | (1/1) Accurately ripped
  6   | (1/1) Accurately ripped
[AccurateRip ID: 000aa97d-00393bf0-400aa806] found.
Track   [  CRC   |   V2   ] Status
 01     [b1ef70bd|0cfc2912] (7+0/7) Accurately ripped
 02     [9d441149|9b3465fb] (8+0/8) Accurately ripped
 03     [8531c080|36045eec] (8+0/8) Accurately ripped
 04     [207ee540|2c41b032] (8+0/8) Accurately ripped
 05     [a02b57aa|6b456dd3] (8+0/8) Accurately ripped
 06     [09ddbf47|aacf0db6] (8+0/8) Accurately ripped
Track Peak [ CRC32  ] [W/O NULL] [  LOG   ]
 --   94,1 [3393AA22] [F653BAB4]
 01   94,1 [255FDB4D] [BB8E1DF2]   CRC32
 02   77,1 [E7F8E075] [92B23B5B]   CRC32
 03   73,6 [63C52A0D] [74BCC547]   CRC32
 04   79,1 [83BB00DB] [8723D070]   CRC32
 05   68,2 [70C325B8] [89960A30]   CRC32
 06   85,5 [2889C8AE] [F98133EB]   CRC32
 
 
Review by Steve Huey
Coming fresh on the heels of his groundbreaking work with Eric Dolphy, Bobby Hutcherson's debut album is a masterpiece of "new thing" avant-garde jazz, not really free but way beyond standard hard bop. Dialogue boasts an all-star lineup of hot young post-boppers -- trumpeter Freddie Hubbard, woodwind player Sam Rivers, pianist Andrew Hill, bassist Richard Davis, and drummer Joe Chambers -- and a set of imaginative compositions by either Hill or Chambers that frequently push the ensemble into uncharted territory. The result is an album bursting at the seams with ideas that still sound remarkably fresh, not to mention a strong sense of collectivity. Hutcherson has so many fine players on hand that the focus is naturally on group interaction rather than any particular soloist(s), setting up nice contrasts like the fiery sax work of Rivers versus the cooler tones of Hutcherson and Hill. Hill's pieces stand tradition on its head, twisting recognizable foundations like the blues ("Ghetto Lights"), Latin jazz ("Catta"), and marching bands ("Les Noirs Marchant," which sounds like a parade of mutant soldiers) into cerebral, angular shapes. Chambers, meanwhile, contributes the most loosely structured pieces in his delicate, softly mysterious ballad "Idle While" and the nearly free group conversations of the ten-minute title track, where Hutcherson also plays the more African-sounding marimba. What's impressive is how focused Hutcherson keeps the group through those widely varied sounds; no one is shortchanged, yet the solos are tight, with no wasted space or spotlight-hogging. Dialogue remains Hutcherson's most adventurous, "outside" album, and while there are more extensive showcases for his playing, this high-caliber session stands as arguably his greatest musical achievement.
(Hard Bop, Free jazz) Bobby Hutcherson - Dialogue (RVG Edition) - 1965, FLAC (image+.cue), lossless
По всем вопросам пишите личное сообщение пользователю M0p94ok.
17:46
458
Нет комментариев. Ваш будет первым!