Поиск

(Hard Bop, Post-Bop, Avant-Garde) Hamiet Bluiett Sextet - Young Warrior, Old Warrior - 1996, FLAC (image+.cue) lossless

(Hard Bop, Post-Bop, Avant-Garde) Hamiet Bluiett Sextet - Young Warrior, Old Warrior - 1996, FLAC (image+.cue) lossless
Треклист:
Hamiet Bluiett Sextet / Young Warrior, Old Warrior
Жанр: Hard Bop, Post-Bop, Blues, Avant-Garde
Страна-производитель диска: USA
Год издания диска: 1996
Издатель (лейбл): Mapleshade Records
Номер по каталогу: #02932
Аудио кодек: FLAC (*.flac)
Тип рипа: image+.cue
Битрейт аудио: lossless
Продолжительность: 52:39
Источник (релизер): oStereo
Наличие сканов в содержимом раздачи: нет
Треклист:
1.BLUE 'N BOOGIE (J.B.Gillespie)
2.PRECIOUS MOMENTS FOR RIGHT NOW (H.Bluiett)
3.SIR PHYLLIS BLUES (H.Bluiett)
4.THINKING ABOUT IT (L.Willis)
5.JIMMY AND ME (Bluiett/Cobb)
6.BARI-ED TREASURE (J.Walrath)
7.HEAD START (K.Betts)
8.BLUES IN F AND G (K.Betts)
 
Лог создания рипа
Exact Audio Copy V1.0 beta 1 from 15. November 2010
EAC extraction logfile from 7. March 2011, 21:42
Hamiet Bluiett Sextet / Young Warrior, Old Warrior
Used drive  : HL-DT-STDVD-RAM GSA-H55N   Adapter: 0  ID: 0
Read mode               : Secure
Utilize accurate stream : Yes
Defeat audio cache      : Yes
Make use of C2 pointers : No
Read offset correction                      : 102
Overread into Lead-In and Lead-Out          : No
Fill up missing offset samples with silence : Yes
Delete leading and trailing silent blocks   : No
Null samples used in CRC calculations       : Yes
Used interface                              : Native Win32 interface for Win NT & 2000
Used output format              : User Defined Encoder
Selected bitrate                : 128 kBit/s
Quality                         : High
Add ID3 tag                     : No
Command line compressor         : C:\Program Files\Exact Audio Copy\FLAC\FLAC.EXE
Additional command line options : -8 -V %s
TOC of the extracted CD
     Track |   Start  |  Length  | Start sector | End sector
    ---------------------------------------------------------
        1  |  0:00.00 | 10:01.40 |         0    |    45114
        2  | 10:01.40 |  8:44.47 |     45115    |    84461
        3  | 18:46.12 |  6:27.55 |     84462    |   113541
        4  | 25:13.67 |  9:01.20 |    113542    |   154136
        5  | 34:15.12 |  3:57.03 |    154137    |   171914
        6  | 38:12.15 |  6:09.15 |    171915    |   199604
        7  | 44:21.30 |  4:03.70 |    199605    |   217899
        8  | 48:25.25 |  4:13.72 |    217900    |   236946
Range status and errors
Selected range
     Filename D:\RIP для ФТП\Hamiet Bluiett Sextet - Young Warrior, Old Warrior.wav
     Peak level 100.0 %
     Extraction speed 0.2 X
     Range quality 99.9 %
     Test CRC E1FECFB0
     Copy CRC E1FECFB0
     Copy OK
No errors occurred
AccurateRip summary
Track  1  not present in database
Track  2  not present in database
Track  3  not present in database
Track  4  not present in database
Track  5  not present in database
Track  6  not present in database
Track  7  not present in database
Track  8  not present in database
None of the tracks are present in the AccurateRip database
End of status report
 
 
Содержание индексной карты (.CUE)
REM GENRE Jazz
REM DATE 1996
REM DISCID 650C5708
REM COMMENT ExactAudioCopy v1.0b1
PERFORMER "Hamiet Bluiett Sextet"
TITLE "Young Warrior, Old Warrior"
FILE "Hamiet Bluiett Sextet - Young Warrior, Old Warrior.flac" WAVE
  TRACK 01 AUDIO
    TITLE "Blue 'n Boogie"
    INDEX 01 00:00:00
  TRACK 02 AUDIO
    TITLE "Precious Moments for Right Now"
    INDEX 00 09:58:27
    INDEX 01 10:01:40
  TRACK 03 AUDIO
    TITLE "Sir Phyllis Blues"
    INDEX 01 18:46:12
  TRACK 04 AUDIO
    TITLE "Thinking About It"
    INDEX 00 25:11:60
    INDEX 01 25:13:67
  TRACK 05 AUDIO
    TITLE "Jimmy and Me"
    INDEX 01 34:15:12
  TRACK 06 AUDIO
    TITLE "Bari-ed Treasure"
    INDEX 01 38:12:15
  TRACK 07 AUDIO
    TITLE "Head Start"
    INDEX 01 44:21:30
  TRACK 08 AUDIO
    TITLE "Blues in F and G"
    INDEX 00 48:23:10
    INDEX 01 48:25:25
Доп. информация: http://www.mapleshaderecords.com/cds/02932.php
 
 
Об альбоме (сборнике)
The Village Voice’s Gary Giddins picked this as one of his Best Jazz Discs of the Year. If you’re a fan of blues-steeped jazz with an unstoppable groove, you have to hear this CD. The line-up is stellar: Bluiett on bari sax; ex-Mingus star Jack Walrath on trumpet; young lion Mark Shim on tenor and a peerless rhythm section—Larry Willis, Keter Betts and Jimmy Cobb. Stereophile says “…this disc sounds awesomely present…these guys are having a rompin’, stompin’, honkin’ good time …Irresistible.” Their set ranges seamlessly from Dizzy’s hard-rocking “Blue ’N Boogie” all the way to Willis’ nostalgic ballad “Thinking About It” and the soul-drenched “Sir Phyllis Blues.”
 
 
Состав
Hamiet Bluiett, bari sax
Jack Walrath, trumpet
Mark Shim, tenor sax
Larry Willis, piano
Keter Betts, bass
Jimmy Cobb, drums
01:28
645
Нет комментариев. Ваш будет первым!