Вы используете незарегистрированную версию компонента "Вкладки"!

Поиск

(Hard Bop, Modern Big Ban) [CD] Phil Woods, Michel Legrand And Orchestra - Images (1975) - 2014 {Japan Jazz Collection 1000 Columbia-RCA Series, SICP 4280}, FLAC (tracks+.cue), lossless

(Hard Bop, Modern Big Ban) [CD] Phil Woods, Michel Legrand And Orchestra - Images (1975) - 2014 {Japan Jazz Collection 1000 Columbia-RCA Series, SICP 4280}, FLAC (tracks+.cue), lossless
Треклист:
Phil Woods, Michel Legrand And Orchestra - Images (1975) Жанр: Hard Bop, Modern Big Ban
Носитель: CD
Страна-производитель диска: Japan
Год издания: 2014
Издатель (лейбл): RCA/Sony Music Japan
Номер по каталогу: SICP 4280
Аудиокодек: FLAC (*.flac)
Тип рипа: tracks+.cue
Битрейт аудио: lossless
Продолжительность: 40:55
Rip by ruskaval
Наличие сканов в содержимом раздачи: да
Треклист:
01. The Windmills Of Your Mind (4:19)
02. A Song For You (4:05)
03. Nicole (3:34)
04. The Summer Knows (3:01)
05. We've Only Just Begun (2:51)
06. I Was Born In Love With You (3:28)
07. Clair de lune (4:51)
08. Images (14:46)
 
 
Состав
Phil Woods - alto saxophone
Michel Legrand - piano, arr.
Derek Watkins - lead trumpet
Don Lusher - lead trombone
Roy Willox - principal woodwinds
Armand Migiani - bass saxophone
Jud Proctor - lead guitar
Ron Mathewson - bass
Kenny Clarke - drums
and others…

 
 
Лог создания рипа
Exact Audio Copy V1.1 from 23. June 2015
EAC extraction logfile from 15. June 2016, 13:58
Phil Woods, Michel Legrand And Orchestra / Images
Used drive : HL-DT-STDVDRAM GP50NW41 Adapter: 1 ID: 0
Read mode : Secure
Utilize accurate stream : Yes
Defeat audio cache : Yes
Make use of C2 pointers : No
Read offset correction : 6
Overread into Lead-In and Lead-Out : No
Fill up missing offset samples with silence : Yes
Delete leading and trailing silent blocks : No
Null samples used in CRC calculations : Yes
Used interface : Native Win32 interface for Win NT & 2000
Gap handling : Appended to previous track
Used output format : User Defined Encoder
Selected bitrate : 1024 kBit/s
Quality : High
Add ID3 tag : No
Command line compressor : C:\Program Files (x86)\FLAC Frontend\tools\flac.exe
Additional command line options : -8 -V -T "ARTIST=%artist%" -T "TITLE=%title%" -T "ALBUM=%albumtitle%" -T "DATE=%year%" -T "TRACKNUMBER=%tracknr%" -T "TOTALTRACKS=%numtracks%" -T "GENRE=%genre%" -T "ALBUMARTIST=%albumartist%" -T "ALBUM ARTIST=%albumartist%" -T "COMMENT=EAC Secure Mode, Test & Copy, AccurateRip, FLAC -8" %source%
TOC of the extracted CD
Track | Start | Length | Start sector | End sector
---------------------------------------------------------
1 | 0:00.00 | 4:18.47 | 0 | 19396
2 | 4:18.47 | 4:04.58 | 19397 | 37754
3 | 8:23.30 | 3:33.65 | 37755 | 53794
4 | 11:57.20 | 3:01.07 | 53795 | 67376
5 | 14:58.27 | 2:51.30 | 67377 | 80231
6 | 17:49.57 | 3:27.65 | 80232 | 95821
7 | 21:17.47 | 4:50.53 | 95822 | 117624
8 | 26:08.25 | 14:46.15 | 117625 | 184089
Track 1
Filename D:\_EAC\Phil Woods, Michel Legrand And Orchestra - Images (1975) [FLAC] {SICP 4280}\01 - The Windmills Of Your Mind.wav
Pre-gap length 0:00:02.00
Peak level 99.1 %
Extraction speed 1.0 X
Track quality 99.9 %
Test CRC 171791C0
Copy CRC 171791C0
Accurately ripped (confidence 2) [71AB4010] (AR v2)
Copy OK
Track 2
Filename D:\_EAC\Phil Woods, Michel Legrand And Orchestra - Images (1975) [FLAC] {SICP 4280}\02 - A Song For You.wav
Pre-gap length 0:00:03.15
Peak level 99.1 %
Extraction speed 1.3 X
Track quality 100.0 %
Test CRC 0F05DA4E
Copy CRC 0F05DA4E
Accurately ripped (confidence 2) [95B15BE6] (AR v2)
Copy OK
Track 3
Filename D:\_EAC\Phil Woods, Michel Legrand And Orchestra - Images (1975) [FLAC] {SICP 4280}\03 - Nicole.wav
Pre-gap length 0:00:03.20
Peak level 99.9 %
Extraction speed 1.3 X
Track quality 100.0 %
Test CRC B9775321
Copy CRC B9775321
Accurately ripped (confidence 2) [FF6991EB] (AR v2)
Copy OK
Track 4
Filename D:\_EAC\Phil Woods, Michel Legrand And Orchestra - Images (1975) [FLAC] {SICP 4280}\04 - The Summer Knows.wav
Pre-gap length 0:00:03.03
Peak level 97.4 %
Extraction speed 1.4 X
Track quality 100.0 %
Test CRC B5891312
Copy CRC B5891312
Accurately ripped (confidence 2) [B243C639] (AR v2)
Copy OK
Track 5
Filename D:\_EAC\Phil Woods, Michel Legrand And Orchestra - Images (1975) [FLAC] {SICP 4280}\05 - We've Only Just Begun.wav
Pre-gap length 0:00:03.25
Peak level 99.9 %
Extraction speed 1.4 X
Track quality 100.0 %
Test CRC 7B42E9B8
Copy CRC 7B42E9B8
Accurately ripped (confidence 2) [363701DA] (AR v2)
Copy OK
Track 6
Filename D:\_EAC\Phil Woods, Michel Legrand And Orchestra - Images (1975) [FLAC] {SICP 4280}\06 - I Was Born In Love With You.wav
Pre-gap length 0:00:02.70
Peak level 95.3 %
Extraction speed 1.6 X
Track quality 100.0 %
Test CRC 0013315D
Copy CRC 0013315D
Accurately ripped (confidence 2) [68797126] (AR v2)
Copy OK
Track 7
Filename D:\_EAC\Phil Woods, Michel Legrand And Orchestra - Images (1975) [FLAC] {SICP 4280}\07 - Clair de lune.wav
Pre-gap length 0:00:04.17
Peak level 95.4 %
Extraction speed 1.8 X
Track quality 100.0 %
Test CRC E5313762
Copy CRC E5313762
Accurately ripped (confidence 2) [BCC05819] (AR v2)
Copy OK
Track 8
Filename D:\_EAC\Phil Woods, Michel Legrand And Orchestra - Images (1975) [FLAC] {SICP 4280}\08 - Images.wav
Pre-gap length 0:00:03.13
Peak level 99.1 %
Extraction speed 2.1 X
Track quality 100.0 %
Test CRC 69A001C3
Copy CRC 69A001C3
Accurately ripped (confidence 2) [64307A05] (AR v2)
Copy OK
All tracks accurately ripped
No errors occurred
End of status report
==== Log checksum 0D99911163F357888C93579D2444AE73388828414D4DB3C966CCB8956291F64C ====
 
Содержание индексной карты (.CUE)
REM GENRE Jazz
REM DATE 1975
REM DISCID 57099608
REM COMMENT "ExactAudioCopy v1.1"
PERFORMER "Phil Woods, Michel Legrand And Orchestra"
TITLE "Images"
FILE "01 - The Windmills Of Your Mind.wav" WAVE
TRACK 01 AUDIO
TITLE "The Windmills Of Your Mind"
PERFORMER "Phil Woods, Michel Legrand And Orchestra"
INDEX 01 00:00:00
TRACK 02 AUDIO
TITLE "A Song For You"
PERFORMER "Phil Woods, Michel Legrand And Orchestra"
INDEX 00 04:15:32
FILE "02 - A Song For You.wav" WAVE
INDEX 01 00:00:00
TRACK 03 AUDIO
TITLE "Nicole"
PERFORMER "Phil Woods, Michel Legrand And Orchestra"
INDEX 00 04:01:38
FILE "03 - Nicole.wav" WAVE
INDEX 01 00:00:00
TRACK 04 AUDIO
TITLE "The Summer Knows"
PERFORMER "Phil Woods, Michel Legrand And Orchestra"
INDEX 00 03:30:62
FILE "04 - The Summer Knows.wav" WAVE
INDEX 01 00:00:00
TRACK 05 AUDIO
TITLE "We've Only Just Begun"
PERFORMER "Phil Woods, Michel Legrand And Orchestra"
INDEX 00 02:57:57
FILE "05 - We've Only Just Begun.wav" WAVE
INDEX 01 00:00:00
TRACK 06 AUDIO
TITLE "I Was Born In Love With You"
PERFORMER "Phil Woods, Michel Legrand And Orchestra"
INDEX 00 02:48:35
FILE "06 - I Was Born In Love With You.wav" WAVE
INDEX 01 00:00:00
TRACK 07 AUDIO
TITLE "Clair de lune"
PERFORMER "Phil Woods, Michel Legrand And Orchestra"
INDEX 00 03:23:48
FILE "07 - Clair de lune.wav" WAVE
INDEX 01 00:00:00
TRACK 08 AUDIO
TITLE "Images"
PERFORMER "Phil Woods, Michel Legrand And Orchestra"
INDEX 00 04:47:40
FILE "08 - Images.wav" WAVE
INDEX 01 00:00:00
Any questions - support@pro-jazz.com. Есть вопросы - support@pro-jazz.com
11:27
256
Нет комментариев. Ваш будет первым!