Вы используете незарегистрированную версию компонента "Вкладки"!

Поиск

(Hard Bop) Michel Legrand Trio — The Warm Shade Of Memory — 1995, FLAC (image+.cue), lossless

Треклист:
Michel Legrand Trio — The Warm Shade Of Memory
Жанр: Hard Bop
Год выпуска диска: 1995
Производитель диска: Россия
Аудио кодек: FLAC
Тип рипа: image+.cue
Битрейт аудио: lossless
Продолжительность: 57:41
Трeклист:
01. Watch What Happens (7:17)
02. The Summer Knows (5:57)
03. Lady Sings The Blues (3:27)
04. Elle A, Elle A Pas (1:52)
05. Les Demoiselles De Rochefort (12:01)
06. I Will Wait For You (5:28)
07. Les Enfants Qui Pleurent (5:35)
08. Peau D'Ane (6:54)
09. I Will Say Goodbye (2:52)
10. The Warm Shade Of Memory (6:19)
Personnel:
Michel Legrand – vocals, piano
Toots Thielemans – harmonica (#2, 6)
Marc Michel le Bevillon – bass
Umberto Pagnini – drums
Rec.: Studio Guilllaume Tell, Suresnes, Paris, France, March 27-29, 1995.
Сканы: 300 dpi (от barin99)
   Автор рипа kursebeli
 
Отчет ЕАС
Exact Audio Copy V0.99 prebeta 4 from 23. January 2008
EAC extraction logfile from 5. May 2010, 7:41
Michel LeGrand Trio / The Warm Shade Of Memory
Used drive : ASUS DRW-1814BL Adapter: 0 ID: 0
Read mode : Secure
Utilize accurate stream : Yes
Defeat audio cache : Yes
Make use of C2 pointers : No
Read offset correction : 6
Overread into Lead-In and Lead-Out : No
Fill up missing offset samples with silence : Yes
Delete leading and trailing silent blocks : No
Null samples used in CRC calculations : Yes
Used interface : Native Win32 interface for Win NT & 2000
Used output format : Internal WAV Routines
Sample format : 44.100 Hz; 16 Bit; Stereo
TOC of the extracted CD
Track | Start | Length | Start sector | End sector
---------------------------------------------------------
1 | 0:00.00 | 7:16.70 | 0 | 32769
2 | 7:16.70 | 5:57.15 | 32770 | 59559
3 | 13:14.10 | 3:27.30 | 59560 | 75114
4 | 16:41.40 | 1:51.60 | 75115 | 83499
5 | 18:33.25 | 12:00.57 | 83500 | 137556
6 | 30:34.07 | 5:28.23 | 137557 | 162179
7 | 36:02.30 | 5:34.65 | 162180 | 187294
8 | 41:37.20 | 6:53.55 | 187295 | 218324
9 | 48:31.00 | 2:51.60 | 218325 | 231209
10 | 51:22.60 | 6:18.52 | 231210 | 259611
Range status and errors
Selected range
Filename C:\Users\Kursebeli\Desktop\Michel LeGrand Trio - The Warm Shade Of Memory\Michel LeGrand Trio - The Warm Shade Of Memory.wav
Peak level 100.0 %
Range quality 100.0 %
Test CRC AB8ABCF5
Copy CRC AB8ABCF5
Copy OK
No errors occurred
End of status report
   :arrow: Мои раздачи на трекере
Any questions - support@pro-jazz.com. Есть вопросы - support@pro-jazz.com
12:39
275
Нет комментариев. Ваш будет первым!