Вы используете незарегистрированную версию компонента "Вкладки"!

Поиск

(Hard Bop, Enja Records) Franco Ambrosetti (with John Abercrombie, Antonio Farao, Miroslav Vitous, Billy Drummond) - Light Breeze - 1998, FLAC (tracks+.cue), lossless

(Hard Bop, Enja Records) Franco Ambrosetti (with John Abercrombie, Antonio Farao, Miroslav Vitous, Billy Drummond) - Light Breeze - 1998, FLAC (tracks+.cue), lossless
Треклист:
Franco Ambrosetti / Light Breeze
Жанр: Hard Bop, Enja Records
Страна-производитель диска: Germany
Год издания: 1998
Издатель (лейбл): Enja Records
Номер по каталогу: ENJ-9331 2
Аудиокодек: FLAC (*.flac)
Тип рипа: tracks+.cue
Битрейт аудио: lossless
Продолжительность: 55:54
Источник (релизер): Max Monteiro
Наличие сканов в содержимом раздачи: нет
Треклист:
01. Versace (Daniel Humair) 6:32
02. Silli’s Nest (Interlude 1) (Franco Ambrosetti) 1:31
03. Deborah (Gian Luca Ambrosetti) 9:02
04. Culture and Sensitivity (Interlude 2) (John Abercrombie) 1:44
05. Contempo Latinsky (Franco Ambrosetti) 7:14
06. Elegia (Interlude 3) (Antonio Faraò) 1:08
07. My Foolish Heart (Young / Washington) 7:26
08. Virtuosismo (Interlude 4) (Miroslav Vitous) 1:21
09. One for the Kids (George Gruntz) 6:02
10. Percussion Dreams (Interlude 5) (Billy Drummond) 2:14
11. Giant Steps (John Coltrane) 5:53
12. Silli in the Sky (Franco Ambrosetti) 5:48
Recorded at Avatar Studios, New York, NY on April 11 and 12, 1997.
Franco Ambrosetti – Fluegelhorn
John Abercrombie – Guitars
Antonio Faraò – Piano
Miroslav Vitous – Bass
Billy Drummond – Drums
 
Лог создания рипа
Exact Audio Copy V1.0 beta 3 from 29. August 2011
EAC extraction logfile from 28. July 2013, 13:10
Franco Ambrosetti / Light Breeze
Used drive : SlimtypeeNAU508 5 Adapter: 1 ID: 0
Read mode : Secure
Utilize accurate stream : Yes
Defeat audio cache : Yes
Make use of C2 pointers : No
Read offset correction : 6
Overread into Lead-In and Lead-Out : No
Fill up missing offset samples with silence : Yes
Delete leading and trailing silent blocks : No
Null samples used in CRC calculations : Yes
Used interface : Native Win32 interface for Win NT & 2000
Gap handling : Appended to previous track
Used output format : User Defined Encoder
Selected bitrate : 768 kBit/s
Quality : High
Add ID3 tag : No
Command line compressor : C:\Program Files (x86)\Exact Audio Copy\Flac\flac.exe
Additional command line options : -8 -V -T "ARTIST=%artist%" -T "TITLE=%title%" -T "ALBUM=%albumtitle%" -T "DATE=%year%" -T "TRACKNUMBER=%tracknr%" -T "GENRE=%genre%" -T "PERFORMER=%albuminterpret%" -T "COMPOSER=%composer%" %haslyrics%--tag-from-file=LYRICS="%lyricsfile%"%haslyrics% -T "ALBUMARTIST=%albumartist%" -T "DISCNUMBER=%cdnumber%" -T "TOTALDISCS=%totalcds%" -T "TOTALTRACKS=%numtracks%" -T "COMMENT=%comment%" %source% -o %dest%
TOC of the extracted CD
Track | Start | Length | Start sector | End sector
---------------------------------------------------------
1 | 0:00.00 | 6:31.57 | 0 | 29381
2 | 6:31.57 | 1:31.15 | 29382 | 36221
3 | 8:02.72 | 9:02.25 | 36222 | 76896
4 | 17:05.22 | 1:43.68 | 76897 | 84689
5 | 18:49.15 | 7:13.42 | 84690 | 117206
6 | 26:02.57 | 1:08.05 | 117207 | 122311
7 | 27:10.62 | 7:25.40 | 122312 | 155726
8 | 34:36.27 | 1:20.70 | 155727 | 161796
9 | 35:57.22 | 6:01.45 | 161797 | 188916
10 | 41:58.67 | 2:14.23 | 188917 | 198989
11 | 44:13.15 | 5:53.25 | 198990 | 225489
12 | 50:06.40 | 5:47.45 | 225490 | 251559
Track 1
Filename C:\EAC rips\01 - Versace.wav
Pre-gap length 0:00:02.00
Peak level 100.0 %
Extraction speed 1.1 X
Track quality 99.9 %
Test CRC 5976BEA8
Copy CRC 5976BEA8
Accurately ripped (confidence 4) [8BE8CD46] (AR v2)
Copy OK
Track 2
Filename C:\EAC rips\02 - Silli's Nest (Interlude 1).wav
Peak level 46.2 %
Extraction speed 1.0 X
Track quality 100.0 %
Test CRC DA3BB0A5
Copy CRC DA3BB0A5
Accurately ripped (confidence 4) [BC47A33B] (AR v2)
Copy OK
Track 3
Filename C:\EAC rips\03 - Deborah.wav
Peak level 92.4 %
Extraction speed 1.4 X
Track quality 100.0 %
Test CRC 0750B847
Copy CRC 0750B847
Accurately ripped (confidence 4) [5EC5FD66] (AR v2)
Copy OK
Track 4
Filename C:\EAC rips\04 - Culture and Sensitivity (Interlude 2).wav
Peak level 82.4 %
Extraction speed 1.0 X
Track quality 99.8 %
Test CRC A2FA260B
Copy CRC A2FA260B
Accurately ripped (confidence 4) [95CE6EBE] (AR v2)
Copy OK
Track 5
Filename C:\EAC rips\05 - Contempo Latinsky.wav
Peak level 89.8 %
Extraction speed 1.5 X
Track quality 99.9 %
Test CRC AFD01207
Copy CRC AFD01207
Accurately ripped (confidence 4) [A09BFB18] (AR v2)
Copy OK
Track 6
Filename C:\EAC rips\06 - Elegia (Interlude 3).wav
Pre-gap length 0:00:00.01
Peak level 41.3 %
Extraction speed 0.9 X
Track quality 99.8 %
Test CRC 19B6C412
Copy CRC 19B6C412
Accurately ripped (confidence 4) [2AFB74F6] (AR v2)
Copy OK
Track 7
Filename C:\EAC rips\07 - My Foolish Heart.wav
Peak level 60.3 %
Extraction speed 1.7 X
Track quality 99.9 %
Test CRC 0053461F
Copy CRC 0053461F
Accurately ripped (confidence 4) [B2652F25] (AR v2)
Copy OK
Track 8
Filename C:\EAC rips\08 - Virtuosismo (Interlude 4).wav
Peak level 55.2 %
Extraction speed 1.4 X
Track quality 100.0 %
Test CRC B6629467
Copy CRC B6629467
Accurately ripped (confidence 4) [8D057CCB] (AR v2)
Copy OK
Track 9
Filename C:\EAC rips\09 - One for the Kids.wav
Pre-gap length 0:00:00.01
Peak level 98.2 %
Extraction speed 2.0 X
Track quality 100.0 %
Test CRC 68F75274
Copy CRC 68F75274
Accurately ripped (confidence 4) [963DD301] (AR v2)
Copy OK
Track 10
Filename C:\EAC rips\10 - Percussion Dreams (Interlude 5).wav
Peak level 68.9 %
Extraction speed 1.7 X
Track quality 100.0 %
Test CRC 7262EB1B
Copy CRC 7262EB1B
Accurately ripped (confidence 4) [5619B3CA] (AR v2)
Copy OK
Track 11
Filename C:\EAC rips\11 - Giant Steps.wav
Peak level 96.6 %
Extraction speed 2.1 X
Track quality 100.0 %
Test CRC DFD49E50
Copy CRC DFD49E50
Accurately ripped (confidence 4) [181B7309] (AR v2)
Copy OK
Track 12
Filename C:\EAC rips\12 - Silli in the Sky.wav
Peak level 84.3 %
Extraction speed 2.0 X
Track quality 99.9 %
Test CRC F0F7570F
Copy CRC F0F7570F
Accurately ripped (confidence 4) [848F9BBE] (AR v2)
Copy OK
All tracks accurately ripped
No errors occurred
End of status report
---- CUETools DB Plugin V2.1.4
[CTDB TOCID: uACU2LevfL47zKHvaaQmYSW4SPY-] disk not present in database
Submit result: uACU2LevfL47zKHvaaQmYSW4SPY- has been uploaded
==== Log checksum D14CB1B31B9EA2D019ACDEADF5AF2B0EFFB3952D756FFD44D0EC6D336F5701F8 ====
 
Содержание индексной карты (.CUE)
REM GENRE Jazz
REM DATE 1998
REM DISCID 950D1A0C
REM COMMENT "ExactAudioCopy v1.0b3"
PERFORMER "Franco Ambrosetti"
TITLE "Light Breeze"
FILE "01 - Versace.wav" WAVE
TRACK 01 AUDIO
TITLE "Versace"
PERFORMER "Franco Ambrosetti"
INDEX 01 00:00:00
FILE "02 - Silli's Nest (Interlude 1).wav" WAVE
TRACK 02 AUDIO
TITLE "Silli's Nest (Interlude 1)"
PERFORMER "Franco Ambrosetti"
INDEX 01 00:00:00
FILE "03 - Deborah.wav" WAVE
TRACK 03 AUDIO
TITLE "Deborah"
PERFORMER "Franco Ambrosetti"
INDEX 01 00:00:00
FILE "04 - Culture and Sensitivity (Interlude 2).wav" WAVE
TRACK 04 AUDIO
TITLE "Culture and Sensitivity (Interlude 2)"
PERFORMER "Franco Ambrosetti"
INDEX 01 00:00:00
FILE "05 - Contempo Latinsky.wav" WAVE
TRACK 05 AUDIO
TITLE "Contempo Latinsky"
PERFORMER "Franco Ambrosetti"
INDEX 01 00:00:00
TRACK 06 AUDIO
TITLE "Elegia (Interlude 3)"
PERFORMER "Franco Ambrosetti"
INDEX 00 07:13:41
FILE "06 - Elegia (Interlude 3).wav" WAVE
INDEX 01 00:00:00
FILE "07 - My Foolish Heart.wav" WAVE
TRACK 07 AUDIO
TITLE "My Foolish Heart"
PERFORMER "Franco Ambrosetti"
INDEX 01 00:00:00
FILE "08 - Virtuosismo (Interlude 4).wav" WAVE
TRACK 08 AUDIO
TITLE "Virtuosismo (Interlude 4)"
PERFORMER "Franco Ambrosetti"
INDEX 01 00:00:00
TRACK 09 AUDIO
TITLE "One for the Kids"
PERFORMER "Franco Ambrosetti"
INDEX 00 01:20:69
FILE "09 - One for the Kids.wav" WAVE
INDEX 01 00:00:00
FILE "10 - Percussion Dreams (Interlude 5).wav" WAVE
TRACK 10 AUDIO
TITLE "Percussion Dreams (Interlude 5)"
PERFORMER "Franco Ambrosetti"
INDEX 01 00:00:00
FILE "11 - Giant Steps.wav" WAVE
TRACK 11 AUDIO
TITLE "Giant Steps"
PERFORMER "Franco Ambrosetti"
INDEX 01 00:00:00
FILE "12 - Silli in the Sky.wav" WAVE
TRACK 12 AUDIO
TITLE "Silli in the Sky"
PERFORMER "Franco Ambrosetti"
INDEX 01 00:00:00
Any questions - support@pro-jazz.com.
Есть вопросы - support@pro-jazz.com
23:53
290
Нет комментариев. Ваш будет первым!