Поиск

(Hard Bop) Curtis Fuller's Quintet with Benny Golson, Tommy Flanagan, Jimmy Garrison, Al Harewood - Blues ette (Blues-ette + 3) (1959) - (1996) 1998, APE (image+.cue) lossless

(Hard Bop) Curtis Fuller's Quintet with Benny Golson, Tommy Flanagan, Jimmy Garrison, Al Harewood - Blues ette (Blues-ette + 3) (1959) - (1996) 1998, APE (image+.cue) lossless
Треклист:
Curtis Fuller's Quintet with Benny Golson, Tommy Flanagan, Jimmy Garrison, Al Harewood - Blues ette (Blues-ette + 3)
Жанр: Hard Bop
Страна-производитель диска: Japan
Год издания диска: 1998 (1996)
Издатель (лейбл): Nippon Columbia Co., LTD. / Savoy Records
Номер по каталогу: COCY-80326 (COCY-78278)
Аудио кодек: APE (*.ape)
Тип рипа: image+.cue
Битрейт аудио: lossless
Продолжительность: 00:57:28
Источник (релизер): barin99
Наличие сканов в содержимом раздачи: да
Треклист:
1. Five Spot After Dark 5:20
2. Undecided 7:10
3. Blues-Ette 5:34
4. Minor Vamp 5:12
5. Love Your Spell Is Everywhere 7:08
6. Twelve-Inch 6:29
7. Five Spot After Dark (tk.4) 5:24 ***
8. Blues-Ette (tk.2) 7:52 ***
9. Love Your Spell Is Everywhere (tk.2) 7:17 ***
*** Bonus Track
Recorded: May 21, 1959.
Personnel:
Curtis Fuller — Trombone
Benny Golson — Sax (Tenor)
Tommy Flanagan — Piano
Jimmy Garrison — Bass
Al Harewood — Drums
Rudy Van Gelder — Engineer
 
Лог создания рипа (EAC Log)
Exact Audio Copy V0.99 prebeta 4 from 23. January 2008
EAC extraction logfile from 15. February 2010, 15:46
Curtis Fuller / Blues-ette +3
Used drive  : HL-DT-STRW/DVD GCC-4242N   Adapter: 1  ID: 0
Read mode               : Secure
Utilize accurate stream : Yes
Defeat audio cache      : Yes
Make use of C2 pointers : No
Read offset correction                      : 102
Overread into Lead-In and Lead-Out          : No
Fill up missing offset samples with silence : Yes
Delete leading and trailing silent blocks   : No
Null samples used in CRC calculations       : Yes
Used interface                              : Native Win32 interface for Win NT & 2000
Used output format : Internal WAV Routines
Sample format      : 44.100 Hz; 16 Bit; Stereo
TOC of the extracted CD
     Track |   Start  |  Length  | Start sector | End sector
    ---------------------------------------------------------
        1  |  0:00.00 |  5:20.02 |         0    |    24001
        2  |  5:20.02 |  7:10.65 |     24002    |    56316
        3  | 12:30.67 |  5:34.38 |     56317    |    81404
        4  | 18:05.30 |  5:12.02 |     81405    |   104806
        5  | 23:17.32 |  7:08.28 |    104807    |   136934
        6  | 30:25.60 |  6:29.32 |    136935    |   166141
        7  | 36:55.17 |  5:24.03 |    166142    |   190444
        8  | 42:19.20 |  7:52.17 |    190445    |   225861
        9  | 50:11.37 |  7:17.25 |    225862    |   258661
Range status and errors
Selected range
     Filename C:\_\EAC_Out\Out\Curtis Fuller - Blues-ette +3\Curtis Fuller - Blues-ette +3.wav
     Peak level 100.0 %
     Range quality 99.9 %
     Copy CRC ACFB1272
     Copy OK
No errors occurred
AccurateRip summary
Track  1  not present in database
Track  2  not present in database
Track  3  not present in database
Track  4  not present in database
Track  5  not present in database
Track  6  not present in database
Track  7  not present in database
Track  8  not present in database
Track  9  not present in database
None of the tracks are present in the AccurateRip database
End of status report
 
 
Содержание индексной карты (.CUE)
REM GENRE Jazz
REM DATE 1959
REM DISCID 6E0D7809
REM COMMENT "ExactAudioCopy v0.99pb4"
PERFORMER "Curtis Fuller"
TITLE "Blues-ette +3"
FILE "Curtis Fuller - Blues-ette +3.ape" WAVE
  TRACK 01 AUDIO
    TITLE "Five Spot After Dark"
    PERFORMER "Curtis Fuller"
    INDEX 01 00:00:00
  TRACK 02 AUDIO
    TITLE "Undecided"
    PERFORMER "Curtis Fuller"
    INDEX 00 05:18:07
    INDEX 01 05:20:02
  TRACK 03 AUDIO
    TITLE "Blues-Ette"
    PERFORMER "Curtis Fuller"
    INDEX 00 12:29:47
    INDEX 01 12:30:67
  TRACK 04 AUDIO
    TITLE "Minor Vamp"
    PERFORMER "Curtis Fuller"
    INDEX 00 18:02:73
    INDEX 01 18:05:30
  TRACK 05 AUDIO
    TITLE "Love Your Spell Is Everywhere"
    PERFORMER "Curtis Fuller"
    INDEX 00 23:15:62
    INDEX 01 23:17:32
  TRACK 06 AUDIO
    TITLE "Twelve-Inch"
    PERFORMER "Curtis Fuller"
    INDEX 00 30:23:53
    INDEX 01 30:25:60
  TRACK 07 AUDIO
    TITLE "Five Spot After Dark -take4"
    PERFORMER "Curtis Fuller"
    INDEX 00 36:52:32
    INDEX 01 36:55:17
  TRACK 08 AUDIO
    TITLE "Blues-Ette -take2"
    PERFORMER "Curtis Fuller"
    INDEX 00 42:16:25
    INDEX 01 42:19:20
  TRACK 09 AUDIO
    TITLE "Love Your Spell Is Everywher -take2"
    PERFORMER "Curtis Fuller"
    INDEX 00 50:09:47
    INDEX 01 50:11:37
 
 
AMG
"Sessions in any genre of music are all too often described as "sublime," but seldom has that description been better deserved than with this relaxed hard bop classic. One looks to other catchalls such as "effortless" and "loose," but even those slight this amazing date by implying a lack of intensity — and intensity comes in all forms. For all intents and purposes, this is the first recorded meeting of what would become the famous Benny Golson/Art Farmer Jazztet (albeit without Farmer), a group most commonly associated with its 1960 Chess session, Meet the Jazztet. Curtis Fuller's next date, The Curtis Fuller Jazztet, and his appearance on the Chess date, only compound this point. Like perhaps Jimmy Smith's flagship, The Sermon, Blues-ette's brilliance manifests itself not only within the individual solos but also in the way the group functions as a collective. One gets the impression that these tunes could have continued for hours in the studio without the slightest lack of interest on anyone's part. This might be because many of the themes presented here are so basic and seemingly obvious that they don't seem like anything to write home about upon first listen. A day or so later, when you're walking down the street to the tempo of the title track, you may begin to think otherwise. These are some exceptionally catchy heads and many have since become standards. As far as individual performances are concerned, you're not likely to find better solos by any of the members of this quintet than you will here, though they all have extensive and very high-quality catalogs themselves. Picking highlights is a moot point. Blues-ette is best experienced as an entire LP. It would have surely made a greater impact upon its initial release had it been on a more high-profile label, such as Columbia or Blue Note, but there's no sense worrying about that now. Any serious jazz collection is incomplete without this record. Period."
Download available for power users only.
07:00
409
Нет комментариев. Ваш будет первым!