Поиск

(Hard Bop) [CD] Ronnie Cuber - Live at JazzFest Berlin (2008) - 2013, FLAC (tracks+.cue), lossless

(Hard Bop) [CD] Ronnie Cuber - Live at JazzFest Berlin (2008) - 2013, FLAC (tracks+.cue), lossless
Треклист:
Ronnie Cuber - Live at JazzFest Berlin
Жанр: Hard Bop
Носитель: CD
Страна-производитель диска: Дания
Год издания: 2013
Издатель (лейбл): SteepleChase
Номер по каталогу: SCCD 31766
Аудиокодек: FLAC (*.flac)
Тип рипа: tracks+.cue
Битрейт аудио: lossless
Продолжительность: 63:15
Источник (релизер): qiniq (what)
Наличие сканов в содержимом раздачи: нет
Треклист:
01. Tokyo Blues (12:31)
02. Coco B (6:12)
03. Things Never Were What They Used to Be (9:29)
04. Passion Fruit (8:28)
05. Tell Me a Bedtime Story (8:45)
06. Perpetuating the Myth (8:18)
07. Arroz con Pollo (9:32)
Состав:
Ronnie Cuber - baritone saxophone
Kenny Drew Jr. - piano
Ruben Rodriguez - bass
Ben Perowsky - drums
Recorded live at Club Quasimodo, Berlin at JazzFest Berlin on November 12, 2008.
 
Лог создания рипа
Exact Audio Copy V1.0 beta 3 from 29. August 2011
EAC extraction logfile from 11. September 2014, 18:31
Ronnie Cuber / Live at JazzFest Berlin
Used drive  : ATAPI   iHAS124   E   Adapter: 1  ID: 0
Read mode               : Secure
Utilize accurate stream : Yes
Defeat audio cache      : Yes
Make use of C2 pointers : No
Read offset correction                      : 6
Overread into Lead-In and Lead-Out          : No
Fill up missing offset samples with silence : Yes
Delete leading and trailing silent blocks   : No
Null samples used in CRC calculations       : Yes
Used interface                              : Native Win32 interface for Win NT & 2000
Gap handling                                : Appended to previous track
Used output format              : User Defined Encoder
Selected bitrate                : 1024 kBit/s
Quality                         : High
Add ID3 tag                     : No
Command line compressor         : C:\Program Files (x86)\Exact Audio Copy\Flac\flac.exe
Additional command line options : -8 -V -T "ARTIST=%artist%" -T "TITLE=%title%" -T "ALBUM=%albumtitle%" -T "DATE=%year%" -T "TRACKNUMBER=%tracknr%" -T "GENRE=%genre%" -T "PERFORMER=%albuminterpret%" -T "COMPOSER=%composer%" %haslyrics%--tag-from-file=LYRICS="%lyricsfile%"%haslyrics% -T "ALBUMARTIST=%albumartist%" -T "DISCNUMBER=%cdnumber%" -T "TOTALDISCS=%totalcds%" -T "TOTALTRACKS=%numtracks%" -T "COMMENT=%comment%" %source% -o %dest%
TOC of the extracted CD
     Track |   Start  |  Length  | Start sector | End sector
    ---------------------------------------------------------
        1  |  0:00.00 | 12:31.27 |         0    |    56351
        2  | 12:31.27 |  6:11.57 |     56352    |    84233
        3  | 18:43.09 |  9:28.65 |     84234    |   126898
        4  | 28:11.74 |  8:27.45 |    126899    |   164968
        5  | 36:39.44 |  8:45.35 |    164969    |   204378
        6  | 45:25.04 |  8:18.12 |    204379    |   241740
        7  | 53:43.16 |  9:31.68 |    241741    |   284633
Track  1
     Filename C:\Users\usuario\Desktop\Subir What\Ronnie Cuber - Live at JazzFest Berlin (2013) [Flac]\01 Tokyo Blues.wav
     Pre-gap length  0:00:02.00
     Peak level 98.8 %
     Extraction speed 6.7 X
     Track quality 100.0 %
     Test CRC 9402F191
     Copy CRC 9402F191
     Track not present in AccurateRip database
     Copy OK
Track  2
     Filename C:\Users\usuario\Desktop\Subir What\Ronnie Cuber - Live at JazzFest Berlin (2013) [Flac]\02 Coco B.wav
     Peak level 98.8 %
     Extraction speed 7.6 X
     Track quality 100.0 %
     Test CRC 824042B6
     Copy CRC 824042B6
     Track not present in AccurateRip database
     Copy OK
Track  3
     Filename C:\Users\usuario\Desktop\Subir What\Ronnie Cuber - Live at JazzFest Berlin (2013) [Flac]\03 Things Never Were What They Used to Be.wav
     Peak level 98.8 %
     Extraction speed 8.7 X
     Track quality 100.0 %
     Test CRC 06D26B6F
     Copy CRC 06D26B6F
     Track not present in AccurateRip database
     Copy OK
Track  4
     Filename C:\Users\usuario\Desktop\Subir What\Ronnie Cuber - Live at JazzFest Berlin (2013) [Flac]\04 Passion Frui.wav
     Peak level 98.8 %
     Extraction speed 8.7 X
     Track quality 99.9 %
     Test CRC 172C60EF
     Copy CRC 172C60EF
     Track not present in AccurateRip database
     Copy OK
Track  5
     Filename C:\Users\usuario\Desktop\Subir What\Ronnie Cuber - Live at JazzFest Berlin (2013) [Flac]\05 Tell Me a Bedtime Story.wav
     Peak level 98.8 %
     Extraction speed 10.4 X
     Track quality 100.0 %
     Test CRC A85FD0A5
     Copy CRC A85FD0A5
     Track not present in AccurateRip database
     Copy OK
Track  6
     Filename C:\Users\usuario\Desktop\Subir What\Ronnie Cuber - Live at JazzFest Berlin (2013) [Flac]\06 Perpetuating the Myth.wav
     Peak level 98.8 %
     Extraction speed 11.0 X
     Track quality 100.0 %
     Test CRC 09160190
     Copy CRC 09160190
     Track not present in AccurateRip database
     Copy OK
Track  7
     Filename C:\Users\usuario\Desktop\Subir What\Ronnie Cuber - Live at JazzFest Berlin (2013) [Flac]\07 Arroz con Pollo.wav
     Peak level 98.8 %
     Extraction speed 11.8 X
     Track quality 100.0 %
     Test CRC B545F8BD
     Copy CRC B545F8BD
     Track not present in AccurateRip database
     Copy OK
None of the tracks are present in the AccurateRip database
No errors occurred
End of status report
==== Log checksum 993BF80BCF587AAAF19124161D87E09A291229A071826BFAD47C02CC0E6C21E2 ====
 
 
Содержание индексной карты (.CUE)
REM GENRE Jazz
REM DATE 2013
REM DISCID 500ED307
REM COMMENT "ExactAudioCopy v1.0b3"
CATALOG 0716043176625
PERFORMER "Ronnie Cuber"
TITLE "Live at JazzFest Berlin"
FILE "01 - Tokyo Blues.wav" WAVE
  TRACK 01 AUDIO
    TITLE "Tokyo Blues"
    PERFORMER "Ronnie Cuber"
    ISRC DKARS1301401
    INDEX 01 00:00:00
FILE "02 - Coco B.wav" WAVE
  TRACK 02 AUDIO
    TITLE "Coco B"
    PERFORMER "Ronnie Cuber"
    ISRC DKARS1301402
    INDEX 01 00:00:00
FILE "03 - Things Never Were What They Used to Be.wav" WAVE
  TRACK 03 AUDIO
    TITLE "Things Never Were What They Used to Be"
    PERFORMER "Ronnie Cuber"
    ISRC DKARS1301403
    INDEX 01 00:00:00
FILE "04 - Passion Fruit.wav" WAVE
  TRACK 04 AUDIO
    TITLE "Passion Fruit"
    PERFORMER "Ronnie Cuber"
    ISRC DKARS1301404
    INDEX 01 00:00:00
FILE "05 - Tell Me a Bedtime Story.wav" WAVE
  TRACK 05 AUDIO
    TITLE "Tell Me a Bedtime Story"
    PERFORMER "Ronnie Cuber"
    ISRC DKARS1301405
    INDEX 01 00:00:00
FILE "06 - Perpetuating the Myth.wav" WAVE
  TRACK 06 AUDIO
    TITLE "Perpetuating the Myth"
    PERFORMER "Ronnie Cuber"
    ISRC DKARS1301406
    INDEX 01 00:00:00
FILE "07 - Arroz con Pollo.wav" WAVE
  TRACK 07 AUDIO
    TITLE "Arroz con Pollo"
    PERFORMER "Ronnie Cuber"
    ISRC DKARS1301407
    INDEX 01 00:00:00
 
 
Review by Arnaldo DeSouteiro
Recorded live (for a radio broadcast) at the Club Quasimodo @ "JazzFest Berlin" on November 12, 2008, and released now in 2013, this powerful & exciting CD focuses on Ronnie Cuber's playing in a straight-ahead context. "We did 2 hour-long sets and selected the best performances from each one," explains Cuber.
The quartet is pure dynamite, and Cuber's dexterity on the baritone sax is impressive; everythings sounds so easy for this giant that he seems to be playing his complex & vigorous solos in a melodica! These German sets bring me great memories of the time I used to attend, week after week in the early 90s, Cuber's gigs every Monday night @ Zanzibar in New York, with the all-star team of Lew Soloff, Mark Egan, Danny Gottlieb and the late Joe Beck, all my dear friends. Not to mention my huge collection of Ronnie Cuber's appearances as sideman on a hundred albums for people like Dom Um Romão, George Benson, David Matthews and Roland Hanna, most of them cut @ Van Gelder Studio under the aegis of producer Creed Taylor.
Horace Silver's classic "Tokyo Blues" would be worthy the CD alone. "It's a monster with a built-in groove," Ronnie says. But there's much more, including Clare Fischer's latin-tinged "Coco B" and a sample of Cuber's lyrical side on Herbie Hancock's soft & gentle "Tell Me A Bedtime Story," one of my personal favorite tunes since I heard Quincy Jones' marvelous version with Harry Lookofsky which I included on Quincy's "Summer In The City" CD that Arnaldo DeSouteiro produced for Verve in 2007.
Cuber decided to revisit his own tunes "Passion Fruit" (based on the changes of "Summertime", but done here in a completely different way from its original take from the classic fusion project of the same name released in 1985, and which became a best-selling CD in Japan) and "Arroz Con Pollo," while fiery pianist Kenny Drew, Jr. contributed "Things Never Were What They Used To Be" (a series of variations, as the title suggests, on Mercer Ellington's "Things Ain't What They Used To Be," a tune that Cuber recorded and often plays with Steve Gadd's band The Gadd Gang) and "Perpetuating The Myth," inspired by Thelonious Monk. Can't wait the day that Cuber will also re-work, in an acoustic mood, another gem from the "Passion Fruit" CD: "Love Notes," a beautiful song that Brazilian piano genius João Donato played for several years in the late 80s after I introduced it to him. Luv ya, Ronnie!
Download available for power users only.
10:01
321
Нет комментариев. Ваш будет первым!