Вы используете незарегистрированную версию компонента "Вкладки"!

Поиск

(Hard Bop) [CD] Ron Affif - Solotude - 1999, FLAC (tracks+.cue), lossless

(Hard Bop) [CD] Ron Affif - Solotude - 1999, FLAC (tracks+.cue), lossless
Треклист:
Ron Affif - Solotude
Жанр: Hard Bop
Носитель: CD
Страна-производитель диска: США
Год издания: 1999
Издатель (лейбл): Pablo Records
Номер по каталогу: PACD-2310-965-2
Аудиокодек: FLAC (*.flac)
Тип рипа: tracks+.cue
Битрейт аудио: lossless
Продолжительность: 63:17
Источник (релизер): guitar_capo (what)
Наличие сканов в содержимом раздачи: сетевые
Треклист:
01. Mark (Affif) - 5:14
02. Autumn in New York (Duke) - 6:20
03. Charene (Affif) - 3:23
04. Dolphin Dance (Hancock) - 4:59
05. I Love You (Porter) - 4:08
06. I've Never Been in Love Before (Loesser) - 5:20
07. Holly (Affif) - 4:13
08. What Is This Thing Called Love? (Porter) - 4:35
09. But Beautiful (Burke-Van Heusen) - 6:36
10. Honeysuckle Rose (Waller-Razaf) - 4:18
11. All the Things You Are (Kern-Hammerstein) - 4:18
12. My Romance (Rodgers-Hart) - 5:23
13. They Can't Take That Away from Me (Gershwin-Gershwin) - 4:30
Состав:
Ron Affif - acoustic guitar (#1,3,7,10), electric guitar (#2,4-6,8,9,11-13)
Recorded at ALB Studios, Burbank, CA on January 4, 1999 (#1,3,7,10) and Fantasy Studios, Berkeley, CA on May 28, 1998 (#2,4-6,8,9,11-13).
 
Лог создания рипа
Exact Audio Copy V1.0 beta 3 from 29. August 2011
EAC extraction logfile from 30. October 2014, 16:50
Ron Affif / Solotude
Used drive : HL-DT-STDVDRAM GU70N Adapter: 0 ID: 0
Read mode : Secure
Utilize accurate stream : Yes
Defeat audio cache : Yes
Make use of C2 pointers : No
Read offset correction : 48
Overread into Lead-In and Lead-Out : No
Fill up missing offset samples with silence : Yes
Delete leading and trailing silent blocks : No
Null samples used in CRC calculations : Yes
Used interface : Native Win32 interface for Win NT & 2000
Gap handling : Appended to previous track
Used output format : User Defined Encoder
Selected bitrate : 1024 kBit/s
Quality : High
Add ID3 tag : No
Command line compressor : C:\Program Files (x86)\Exact Audio Copy\Flac\flac.exe
Additional command line options : -8 -V -T "ARTIST=%artist%" -T "TITLE=%title%" -T "ALBUM=%albumtitle%" -T "DATE=%year%" -T "TRACKNUMBER=%tracknr%" -T "GENRE=%genre%" -T "PERFORMER=%albuminterpret%" -T "COMPOSER=%composer%" %haslyrics%--tag-from-file=LYRICS="%lyricsfile%"%haslyrics% -T "ALBUMARTIST=%albumartist%" -T "DISCNUMBER=%cdnumber%" -T "TOTALDISCS=%totalcds%" -T "TOTALTRACKS=%numtracks%" -T "COMMENT=%comment%" %source% -o %dest%
TOC of the extracted CD
Track | Start | Length | Start sector | End sector
---------------------------------------------------------
1 | 0:00.00 | 5:13.65 | 0 | 23539
2 | 5:13.65 | 6:19.65 | 23540 | 52029
3 | 11:33.55 | 3:23.10 | 52030 | 67264
4 | 14:56.65 | 4:59.25 | 67265 | 89714
5 | 19:56.15 | 4:07.60 | 89715 | 108299
6 | 24:04.00 | 5:19.57 | 108300 | 132281
7 | 29:23.57 | 4:13.33 | 132282 | 151289
8 | 33:37.15 | 4:35.15 | 151290 | 171929
9 | 38:12.30 | 6:36.02 | 171930 | 201631
10 | 44:48.32 | 4:17.43 | 201632 | 220949
11 | 49:06.00 | 4:17.65 | 220950 | 240289
12 | 53:23.65 | 5:22.45 | 240290 | 264484
13 | 58:46.35 | 4:30.00 | 264485 | 284734
Track 1
Filename C:\EAC Rips\Ron Affif - Solotude (1999) [FLAC]\01 - Mark.wav
Pre-gap length 0:00:02.00
Peak level 89.2 %
Extraction speed 3.1 X
Track quality 100.0 %
Test CRC DDC46997
Copy CRC DDC46997
Accurately ripped (confidence 3) [35049A4A] (AR v2)
Copy OK
Track 2
Filename C:\EAC Rips\Ron Affif - Solotude (1999) [FLAC]\02 - Autumn in New York.wav
Pre-gap length 0:00:02.97
Peak level 89.2 %
Extraction speed 1.4 X
Track quality 100.0 %
Test CRC 65DAA166
Copy CRC 65DAA166
Accurately ripped (confidence 3) [16144E19] (AR v2)
Copy OK
Track 3
Filename C:\EAC Rips\Ron Affif - Solotude (1999) [FLAC]\03 - Charene.wav
Pre-gap length 0:00:01.64
Peak level 89.1 %
Extraction speed 1.4 X
Track quality 100.0 %
Test CRC CA1B9982
Copy CRC CA1B9982
Accurately ripped (confidence 3) [E75B96AC] (AR v2)
Copy OK
Track 4
Filename C:\EAC Rips\Ron Affif - Solotude (1999) [FLAC]\04 - Dolphin Dance.wav
Pre-gap length 0:00:02.66
Peak level 89.4 %
Extraction speed 1.6 X
Track quality 100.0 %
Test CRC 862FB313
Copy CRC 862FB313
Accurately ripped (confidence 3) [027D6FE5] (AR v2)
Copy OK
Track 5
Filename C:\EAC Rips\Ron Affif - Solotude (1999) [FLAC]\05 - I Love You.wav
Pre-gap length 0:00:01.60
Peak level 89.0 %
Extraction speed 1.7 X
Track quality 100.0 %
Test CRC FA562956
Copy CRC FA562956
Accurately ripped (confidence 3) [5B6D27D5] (AR v2)
Copy OK
Track 6
Filename C:\EAC Rips\Ron Affif - Solotude (1999) [FLAC]\06 - I've Never Been in Love Before.wav
Pre-gap length 0:00:03.53
Peak level 90.5 %
Extraction speed 1.9 X
Track quality 100.0 %
Test CRC 998D57D3
Copy CRC 998D57D3
Accurately ripped (confidence 3) [C8609E0E] (AR v2)
Copy OK
Track 7
Filename C:\EAC Rips\Ron Affif - Solotude (1999) [FLAC]\07 - Holly.wav
Pre-gap length 0:00:03.09
Peak level 81.5 %
Extraction speed 1.9 X
Track quality 100.0 %
Test CRC 3C1E8D24
Copy CRC 3C1E8D24
Accurately ripped (confidence 3) [5447E40F] (AR v2)
Copy OK
Track 8
Filename C:\EAC Rips\Ron Affif - Solotude (1999) [FLAC]\08 - What Is This Thing Called Love.wav
Pre-gap length 0:00:03.40
Peak level 89.0 %
Extraction speed 1.8 X
Track quality 99.9 %
Test CRC 4A5AC078
Copy CRC 4A5AC078
Accurately ripped (confidence 3) [2EEB16DA] (AR v2)
Copy OK
Track 9
Filename C:\EAC Rips\Ron Affif - Solotude (1999) [FLAC]\09 - But Beautiful.wav
Pre-gap length 0:00:02.44
Peak level 89.2 %
Extraction speed 2.2 X
Track quality 100.0 %
Test CRC DE5E868A
Copy CRC DE5E868A
Accurately ripped (confidence 3) [CE5D7CF1] (AR v2)
Copy OK
Track 10
Filename C:\EAC Rips\Ron Affif - Solotude (1999) [FLAC]\10 - Honeysuckle Rose.wav
Pre-gap length 0:00:02.76
Peak level 90.7 %
Extraction speed 2.2 X
Track quality 100.0 %
Test CRC 126B8AFC
Copy CRC 126B8AFC
Accurately ripped (confidence 3) [FD024F65] (AR v2)
Copy OK
Track 11
Filename C:\EAC Rips\Ron Affif - Solotude (1999) [FLAC]\11 - All the Things You Are.wav
Pre-gap length 0:00:01.57
Peak level 89.2 %
Extraction speed 2.3 X
Track quality 100.0 %
Test CRC 23BC0381
Copy CRC 23BC0381
Accurately ripped (confidence 3) [4FECB43A] (AR v2)
Copy OK
Track 12
Filename C:\EAC Rips\Ron Affif - Solotude (1999) [FLAC]\12 - My Romance.wav
Pre-gap length 0:00:01.97
Peak level 89.2 %
Extraction speed 2.4 X
Track quality 100.0 %
Test CRC E30B906B
Copy CRC E30B906B
Accurately ripped (confidence 3) [12551FC7] (AR v2)
Copy OK
Track 13
Filename C:\EAC Rips\Ron Affif - Solotude (1999) [FLAC]\13 - They Can't Take That Away from Me.wav
Pre-gap length 0:00:01.06
Peak level 90.0 %
Extraction speed 2.5 X
Track quality 100.0 %
Test CRC A0518A24
Copy CRC A0518A24
Accurately ripped (confidence 3) [AAFA5F5E] (AR v2)
Copy OK
All tracks accurately ripped
No errors occurred
End of status report
---- CUETools DB Plugin V2.1.3
[CTDB TOCID: _e6sEor5huy2NQFN57d5yfgf4no-] found, Submit result: _e6sEor5huy2NQFN57d5yfgf4no- has been confirmed
[3b2d1cb5] (1/1) Accurately ripped
==== Log checksum 1D17A469D6C517BF0365F759ECE06EE620DF52A4125AAD624FD80AB1EF6CE2FE ====
 
Содержание индексной карты (.CUE)
REM GENRE Jazz
REM DATE 1999
REM DISCID CE0ED40D
REM COMMENT "ExactAudioCopy v1.0b3"
PERFORMER "Ron Affif"
TITLE "Solotude"
FILE "01 - Mark.wav" WAVE
TRACK 01 AUDIO
TITLE "Mark"
PERFORMER "Ron Affif"
INDEX 01 00:00:00
TRACK 02 AUDIO
TITLE "Autumn in New York"
PERFORMER "Ron Affif"
INDEX 00 05:10:67
FILE "02 - Autumn in New York.wav" WAVE
INDEX 01 00:00:00
TRACK 03 AUDIO
TITLE "Charene"
PERFORMER "Ron Affif"
INDEX 00 06:18:17
FILE "03 - Charene.wav" WAVE
INDEX 01 00:00:00
TRACK 04 AUDIO
TITLE "Dolphin Dance"
PERFORMER "Ron Affif"
INDEX 00 03:20:35
FILE "04 - Dolphin Dance.wav" WAVE
INDEX 01 00:00:00
TRACK 05 AUDIO
TITLE "I Love You"
PERFORMER "Ron Affif"
INDEX 00 04:57:55
FILE "05 - I Love You.wav" WAVE
INDEX 01 00:00:00
TRACK 06 AUDIO
TITLE "I've Never Been in Love Before"
PERFORMER "Ron Affif"
INDEX 00 04:04:20
FILE "06 - I've Never Been in Love Before.wav" WAVE
INDEX 01 00:00:00
TRACK 07 AUDIO
TITLE "Holly"
PERFORMER "Ron Affif"
INDEX 00 05:16:50
FILE "07 - Holly.wav" WAVE
INDEX 01 00:00:00
TRACK 08 AUDIO
TITLE "What Is This Thing Called Love?"
PERFORMER "Ron Affif"
INDEX 00 04:10:03
FILE "08 - What Is This Thing Called Love.wav" WAVE
INDEX 01 00:00:00
TRACK 09 AUDIO
TITLE "But Beautiful"
PERFORMER "Ron Affif"
INDEX 00 04:32:57
FILE "09 - But Beautiful.wav" WAVE
INDEX 01 00:00:00
TRACK 10 AUDIO
TITLE "Honeysuckle Rose"
PERFORMER "Ron Affif"
INDEX 00 06:33:20
FILE "10 - Honeysuckle Rose.wav" WAVE
INDEX 01 00:00:00
TRACK 11 AUDIO
TITLE "All the Things You Are"
PERFORMER "Ron Affif"
INDEX 00 04:16:00
FILE "11 - All the Things You Are.wav" WAVE
INDEX 01 00:00:00
TRACK 12 AUDIO
TITLE "My Romance"
PERFORMER "Ron Affif"
INDEX 00 04:15:67
FILE "12 - My Romance.wav" WAVE
INDEX 01 00:00:00
TRACK 13 AUDIO
TITLE "They Can't Take That Away from Me"
PERFORMER "Ron Affif"
INDEX 00 05:21:40
FILE "13 - They Can't Take That Away from Me.wav" WAVE
INDEX 01 00:00:00
 
Отчет CUETools
[CUETools log; Date: 03.11.2014 0:41:43; Version: 2.1.5]
[CTDB TOCID: _e6sEor5huy2NQFN57d5yfgf4no-] found.
Track | CTDB Status
1 | (2/2) Accurately ripped
2 | (2/2) Accurately ripped
3 | (2/2) Accurately ripped
4 | (2/2) Accurately ripped
5 | (2/2) Accurately ripped
6 | (2/2) Accurately ripped
7 | (2/2) Accurately ripped
8 | (2/2) Accurately ripped
9 | (2/2) Accurately ripped
10 | (2/2) Accurately ripped
11 | (2/2) Accurately ripped
12 | (2/2) Accurately ripped
13 | (2/2) Accurately ripped
[AccurateRip ID: 001ea57c-0131509b-ce0ed40d] found.
Track [ CRC | V2 ] Status
01 [bce3a196|35049a4a] (2+3/5) Accurately ripped
02 [291aee49|16144e19] (2+3/5) Accurately ripped
03 [2d391c86|e75b96ac] (2+3/5) Accurately ripped
04 [1168a65b|027d6fe5] (2+3/5) Accurately ripped
05 [35a25c7b|5b6d27d5] (2+3/5) Accurately ripped
06 [370396ca|c8609e0e] (2+3/5) Accurately ripped
07 [c347d267|5447e40f] (2+3/5) Accurately ripped
08 [380db041|2eeb16da] (2+3/5) Accurately ripped
09 [0ca3e754|ce5d7cf1] (2+3/5) Accurately ripped
10 [8d5e423e|fd024f65] (2+3/5) Accurately ripped
11 [02a8cf53|4fecb43a] (2+3/5) Accurately ripped
12 [124a9d67|12551fc7] (2+3/5) Accurately ripped
13 [77085df0|aafa5f5e] (2+3/5) Accurately ripped
Track Peak [ CRC32 ] [W/O NULL] [ LOG ]
-- 90,7 [1AB50CFC] [FE5831AA]
01 89,2 [DDC46997] [48321F70] CRC32
02 89,2 [65DAA166] [7C024638] CRC32
03 89,1 [CA1B9982] [74A4825B] CRC32
04 89,4 [862FB313] [6968421F] CRC32
05 89,0 [FA562956] [DF444D96] CRC32
06 90,5 [998D57D3] [FBDED06B] CRC32
07 81,5 [3C1E8D24] [CD76E74B] CRC32
08 89,0 [4A5AC078] [CC0B8E46] CRC32
09 89,2 [DE5E868A] [1A9CD096] CRC32
10 90,7 [126B8AFC] [2DF08065] CRC32
11 89,2 [23BC0381] [62543663] CRC32
12 89,2 [E30B906B] [C34B6ABE] CRC32
13 90,0 [A0518A24] [815B562B] CRC32
 
Review by Michael G. Nastos
For 13 tracks (ten standards and three originals), Ron Affif plays some of the most beautiful solo guitar you will ever hear. He's on nylon six-string acoustic for four numbers, electric guitar for the rest. All feature his patient, measured tones, easygoing but stretching the parameters of many of these quite familiar themes. The best of his extrapolations comes on a Kenny Kirkland-inspired version of "Dolphin Dance," where bass and higher-pitched strings converse in a nice groove; the swinging "I Love You," where Affif extends the melody and embellishes on it; and the best swinger, "They Can't Take That Away from Me," where he expertly mixes single lines and chords in an almost dutiful manner. He wittily uses a half-speed approach to phrase "Honeysuckle Rose"; uses an admitted Joe Pass-ified style on "I've Never Been in Love Before"; and drenches "What Is This Thing Called Love?," "All the Things You Are," and "My Romance" with sheets of reverence and reserve. The originals "Mark" (for his older bro), "Charene," and "Holly" have similar qualities of virtue and understanding, the first a soulful ballad, the second a romantic piece as if Affif were a serenading gondolier, and the third a tender rendering for a long loved one. "Autumn in New York" and "But Beautiful" also are marked with an abstinence of freneticism, and nicely understated. If the world has not yet picked up on Affif's ability as a first-rate guitarist, this should do the trick, for the young at heart and the lover in all of us. Highly recommended.
Any questions - support@pro-jazz.com. Есть вопросы - support@pro-jazz.com
12:58
220
Нет комментариев. Ваш будет первым!