Вы используете незарегистрированную версию компонента "Вкладки"!

Поиск

(Hard Bop) [CD] Mel Lewis & Friends (Paul Chambers & Philly Joe Jones) - Gettin' Together (1957) - 1987, FLAC (tracks+.cue), lossless

(Hard Bop) [CD] Mel Lewis & Friends (Paul Chambers & Philly Joe Jones) - Gettin' Together (1957) - 1987, FLAC (tracks+.cue), lossless
Треклист:
Mel Lewis & Friends / Gettin' Together (1957)
Жанр: Hard Bop
Носитель: CD
Страна-производитель диска (релиза): Japan
Год издания: 1987
Издатель (лейбл): Vee Jay
Номер по каталогу: 32YD-1024
Аудиокодек: FLAC (*.flac)
Тип рипа: tracks+.cue
Битрейт аудио: lossless
Продолжительность: 00:34:44
Источник (релизер): Собственный рип
Наличие сканов в содержимом раздачи: да
Треклист:
01 "Motif" (John Graas) - 3:59
02 "My Buddy" (Walter Donaldson)- 2:35
03 "Neat Foot" (Paul Moer) - 3:03
04 "The Song Is Ended" (Irving Berlin) - 2:36
05 "Mulliganesque" (John Graas) - 6:11
06 "Canon Ball" (John Graas) - 5:26
07 "Mood" (John Graas) - 2:26
08 "There Will Never Be Another You" (Harry Warren, Mack Gordon) - 2:28
09 "Westlake Bounce" (John Graas) - 5:59
 
Лог создания рипа
Exact Audio Copy V1.3 from 2. September 2016
Отчёт EAC об извлечении, выполненном 30. апреля 2018, 13:40
Mel Lewis & Friends / Gettin' Together
Дисковод: HL-DT-STDVDRAM GUA0N Adapter: 1 ID: 0
Режим чтения : Достоверность
Использование точного потока : Да
Отключение кэша аудио : Да
Использование указателей C2 : Нет
Коррекция смещения при чтении : 6
Способность читать области Lead-in и Lead-out : Нет
Заполнение пропущенных сэмплов тишиной : Да
Удаление блоков с тишиной в начале и конце : Нет
При вычислениях CRC использовались нулевые сэмплы : Да
Интерфейс : Встроенный Win32-интерфейс для Win NT/2000
Обработка зазоров : Добавлено к предыдущему треку
Выходной формат : Пользовательский кодировщик
Выбранный битрейт : 128 kBit/s
Качество : Высокий
Добавление ID3-тега : Нет
Утилита сжатия : C:\Program Files (x86)\Exact Audio Copy\Flac\flac.exe
Дополнительные параметры : -V -8 -T "Date=%year%" -T "Genre=%genre%" %source%
TOC извлечённого CD
Трек | Старт | Длительность | Начальный сектор | Конечный сектор
---------------------------------------------------------------------
1 | 0:00.00 | 3:58.57 | 0 | 17906
2 | 3:58.57 | 2:34.40 | 17907 | 29496
3 | 6:33.22 | 3:02.68 | 29497 | 43214
4 | 9:36.15 | 2:36.37 | 43215 | 54951
5 | 12:12.52 | 6:11.30 | 54952 | 82806
6 | 18:24.07 | 5:25.70 | 82807 | 107251
7 | 23:50.02 | 2:26.25 | 107252 | 118226
8 | 26:16.27 | 2:28.33 | 118227 | 129359
9 | 28:44.60 | 5:59.22 | 129360 | 156306
Трек 1
Имя файла C:\01 Motif.wav
Длина предзазора 0:00:02.00
Пиковый уровень 71.1 %
Скорость извлечения 2.7 X
Качество трека 100.0 %
CRC теста 030AB676
CRC копии 030AB676
Точное извлечение (достоверность 2) [9E67FEE4] (AR v2)
Копирование... OK
Трек 2
Имя файла C:\02 My Buddy.wav
Длина предзазора 0:00:02.37
Пиковый уровень 57.3 %
Скорость извлечения 2.7 X
Качество трека 100.0 %
CRC теста 25DA69E7
CRC копии 25DA69E7
Точное извлечение (достоверность 2) [959A1025] (AR v2)
Копирование... OK
Трек 3
Имя файла C:\03 Neat Foot.wav
Длина предзазора 0:00:02.37
Пиковый уровень 71.6 %
Скорость извлечения 2.6 X
Качество трека 99.9 %
CRC теста 79CE9189
CRC копии 79CE9189
Точное извлечение (достоверность 2) [838795FE] (AR v2)
Копирование... OK
Трек 4
Имя файла C:\04 The Song Is Ended.wav
Длина предзазора 0:00:02.38
Пиковый уровень 82.6 %
Скорость извлечения 3.1 X
Качество трека 100.0 %
CRC теста C2CE6C63
CRC копии C2CE6C63
Точное извлечение (достоверность 2) [0E714069] (AR v2)
Копирование... OK
Трек 5
Имя файла C:\05 Mulliganesque.wav
Длина предзазора 0:00:02.37
Пиковый уровень 77.2 %
Скорость извлечения 1.6 X
Качество трека 100.0 %
CRC теста 8EDF9A06
CRC копии 8EDF9A06
Точное извлечение (достоверность 2) [7C125BAC] (AR v2)
Копирование... OK
Трек 6
Имя файла C:\06 Canon Ball.wav
Длина предзазора 0:00:02.37
Пиковый уровень 87.2 %
Скорость извлечения 4.0 X
Качество трека 100.0 %
CRC теста A5624424
CRC копии A5624424
Точное извлечение (достоверность 1) [AB9F1432] (AR v2)
Копирование... OK
Трек 7
Имя файла C:\07 Mood.wav
Длина предзазора 0:00:02.37
Пиковый уровень 60.9 %
Скорость извлечения 3.7 X
Качество трека 100.0 %
CRC теста 51ED6403
CRC копии 51ED6403
Точное извлечение (достоверность 2) [7CA3F59A] (AR v2)
Копирование... OK
Трек 8
Имя файла C:\08 There Will Never Be Another You.wav
Длина предзазора 0:00:02.37
Пиковый уровень 96.1 %
Скорость извлечения 1.6 X
Качество трека 100.0 %
CRC теста 93724354
CRC копии 93724354
Точное извлечение (достоверность 2) [A37F46B3] (AR v2)
Копирование... OK
Трек 9
Имя файла C:\09 Westlake Bounce.wav
Длина предзазора 0:00:02.38
Пиковый уровень 63.2 %
Скорость извлечения 2.0 X
Качество трека 100.0 %
CRC теста 4AED3470
CRC копии 4AED3470
Точное извлечение (достоверность 2) [080DC04A] (AR v2)
Копирование... OK
Все треки извлечены точно
Ошибок не произошло
Конец отчёта
==== Контрольная сумма отчёта E21F613C6470D83D9FEE14FE31C9CD371AE6F597941DD7EE40B2F0F6C9A29A54 ====
 
Содержание индексной карты (.CUE)
REM GENRE Jazz
REM DATE 1987
REM DISCID 72082409
REM COMMENT "ExactAudioCopy v1.3"
PERFORMER " Mel Lewis & Friends"
TITLE "Gettin' Together"
REM COMPOSER ""
FILE "01 Motif.wav" WAVE
TRACK 01 AUDIO
TITLE "Motif"
PERFORMER " Mel Lewis & Friends"
REM COMPOSER ""
INDEX 01 00:00:00
TRACK 02 AUDIO
TITLE "My Buddy"
PERFORMER " Mel Lewis & Friends"
REM COMPOSER ""
INDEX 00 03:56:20
FILE "02 My Buddy.wav" WAVE
INDEX 01 00:00:00
TRACK 03 AUDIO
TITLE "Neat Foot"
PERFORMER " Mel Lewis & Friends"
REM COMPOSER ""
INDEX 00 02:32:03
FILE "03 Neat Foot.wav" WAVE
INDEX 01 00:00:00
TRACK 04 AUDIO
TITLE "The Song Is Ended"
PERFORMER " Mel Lewis & Friends"
REM COMPOSER ""
INDEX 00 03:00:30
FILE "04 The Song Is Ended.wav" WAVE
INDEX 01 00:00:00
TRACK 05 AUDIO
TITLE "Mulliganesque"
PERFORMER " Mel Lewis & Friends"
REM COMPOSER ""
INDEX 00 02:34:00
FILE "05 Mulliganesque.wav" WAVE
INDEX 01 00:00:00
TRACK 06 AUDIO
TITLE "Canon Ball"
PERFORMER " Mel Lewis & Friends"
REM COMPOSER ""
INDEX 00 06:08:68
FILE "06 Canon Ball.wav" WAVE
INDEX 01 00:00:00
TRACK 07 AUDIO
TITLE "Mood"
PERFORMER " Mel Lewis & Friends"
REM COMPOSER ""
INDEX 00 05:23:33
FILE "07 Mood.wav" WAVE
INDEX 01 00:00:00
TRACK 08 AUDIO
TITLE "There Will Never Be Another You"
PERFORMER " Mel Lewis & Friends"
REM COMPOSER ""
INDEX 00 02:23:63
FILE "08 There Will Never Be Another You.wav" WAVE
INDEX 01 00:00:00
TRACK 09 AUDIO
TITLE "Westlake Bounce"
PERFORMER " Mel Lewis & Friends"
REM COMPOSER ""
INDEX 00 02:25:70
FILE "09 Westlake Bounce.wav" WAVE
INDEX 01 00:00:00
 
Состав
Jack Montrose - Tenor Saxophone
Bill Perkins - Tenor Saxophone, Baritone Saxophone
Paul Moer - Piano
Paul Chambers - Bass
Mel Lewis - Drums (tracks: 5, 9)
Philly Joe Jones - Drums
Any questions - support@pro-jazz.com.
Есть вопросы - support@pro-jazz.com
09:53
247
Нет комментариев. Ваш будет первым!