Поиск

(Hard Bop) [CD] J.J. Johnson & Nat Adderley - Yokohama Concert - 1977 (1997) (2CD), FLAC (tracks+.cue), lossless

(Hard Bop) [CD] J.J. Johnson & Nat Adderley - Yokohama Concert - 1977 (1997) (2CD), FLAC (tracks+.cue), lossless
Треклист:
J.J. Johnson & Nat Adderley - Yokohama Concert
Жанр: Hard Bop
Носитель: CD
Страна-производитель диска (релиза): США
Год издания: 1997
Издатель (лейбл): Pablo Records
Номер по каталогу: 2PACD-2620-109-2
Аудиокодек: FLAC (*.flac)
Тип рипа: tracks+.cue
Битрейт аудио: lossless
Продолжительность: 1:23:43
Источник (релизер): holdover
Наличие сканов в содержимом раздачи: нет
 
CD1 {46:33}
01. Horace (Johnson) - 7:23
02. Cyclops (Adderley) - 6:28
03. Why Not (Johnson) - 8:32
04. Splashes (Johnson) - 7:39
05. It Happens (Dumas) - 10:11
06. Work Song (Adderley) - 6:20
 
 
Лог создания рипа
X Lossless Decoder version 20170729 (150.3)
XLD extraction logfile from 2018-09-08 17:29:42 -0700
J.J. Johnson and Nat Adderley / Yokohama Concert
Used drive : HL-DT-ST DVDRW  GS41N (revision UA04)
Media type : Pressed CD
Ripper mode             : XLD Secure Ripper
Disable audio cache     : OK for the drive with a cache less than 1375KiB
Make use of C2 pointers : NO
Read offset correction  : 6
Max retry count         : 20
Gap status              : Analyzed, Appended
TOC of the extracted CD
     Track |   Start  |  Length  | Start sector | End sector
    ---------------------------------------------------------
        1  | 00:00:00 | 07:23:07 |         0    |    33231
        2  | 07:23:07 | 06:28:00 |     33232    |    62331
        3  | 13:51:07 | 08:31:43 |     62332    |   100699
        4  | 22:22:50 | 07:38:42 |    100700    |   135091
        5  | 30:01:17 | 10:11:15 |    135092    |   180931
        6  | 40:12:32 | 06:20:13 |    180932    |   209444
List of alternate offset correction values
        #  | Absolute | Relative | Confidence
    ------------------------------------------
        1  |   -653   |   -659   |      4
AccurateRip Summary (DiscID: 000b0345-003b41a4-400ae806)
    Track 01 : OK (v1+v2, confidence 4/4, with different offset)
    Track 02 : OK (v1+v2, confidence 4/4, with different offset)
    Track 03 : OK (v1+v2, confidence 4/4, with different offset)
    Track 04 : OK (v1+v2, confidence 4/4, with different offset)
    Track 05 : OK (v1+v2, confidence 4/4, with different offset)
    Track 06 : OK (v1+v2, confidence 4/4, with different offset)
        ->All tracks accurately ripped.
All Tracks
    Album gain               : -4.54 dB
    Peak                     : 1.000000
    Statistics
        Read error                           : 0
        Jitter error (maybe fixed)           : 0
        Retry sector count                   : 0
        Damaged sector count                 : 0
Track 01
    Filename : /Users/kallen/Music/J.J. Johnson and Nat Adderley - 1977 - Yokohama Concert [FLAC]/01 Horace.flac
    Pre-gap length : 00:02:00
    Track gain               : -4.79 dB
    Peak                     : 1.000000
    CRC32 hash (test run)    : 3A589BFC
    CRC32 hash               : 3A589BFC
    CRC32 hash (skip zero)   : E5FADCA6
    AccurateRip v1 signature : 8D7C495F (CB9C3C44 w/correction)
    AccurateRip v2 signature : 1EFEF173 (69A082B9 w/correction)
        ->Accurately ripped with different offset (v1+v2, confidence 2+2/4, offset -659)
    Statistics
        Read error                           : 0
        Jitter error (maybe fixed)           : 0
        Retry sector count                   : 0
        Damaged sector count                 : 0
Track 02
    Filename : /Users/kallen/Music/J.J. Johnson and Nat Adderley - 1977 - Yokohama Concert [FLAC]/02 Cyclops.flac
    Track gain               : -4.65 dB
    Peak                     : 1.000000
    CRC32 hash (test run)    : 9FCA13AA
    CRC32 hash               : 9FCA13AA
    CRC32 hash (skip zero)   : 46DB5732
    AccurateRip v1 signature : 7C74F548 (4FD545DC w/correction)
    AccurateRip v2 signature : E7C60957 (39924C65 w/correction)
        ->Accurately ripped with different offset (v1+v2, confidence 2+2/4, offset -659)
    Statistics
        Read error                           : 0
        Jitter error (maybe fixed)           : 0
        Retry sector count                   : 0
        Damaged sector count                 : 0
Track 03
    Filename : /Users/kallen/Music/J.J. Johnson and Nat Adderley - 1977 - Yokohama Concert [FLAC]/03 Why Not.flac
    Track gain               : -4.27 dB
    Peak                     : 1.000000
    CRC32 hash (test run)    : FF28DE98
    CRC32 hash               : FF28DE98
    CRC32 hash (skip zero)   : 3D413CAC
    AccurateRip v1 signature : 165418A0 (98DC0B36 w/correction)
    AccurateRip v2 signature : 1A2334C0 (6026CE27 w/correction)
        ->Accurately ripped with different offset (v1+v2, confidence 2+2/4, offset -659)
    Statistics
        Read error                           : 0
        Jitter error (maybe fixed)           : 0
        Retry sector count                   : 0
        Damaged sector count                 : 0
Track 04
    Filename : /Users/kallen/Music/J.J. Johnson and Nat Adderley - 1977 - Yokohama Concert [FLAC]/04 Splashes.flac
    Track gain               : -4.42 dB
    Peak                     : 1.000000
    CRC32 hash (test run)    : C3121C13
    CRC32 hash               : C3121C13
    CRC32 hash (skip zero)   : BBB35D66
    AccurateRip v1 signature : 96F97C1A (C7BCD4F7 w/correction)
    AccurateRip v2 signature : C4068481 (256037EF w/correction)
        ->Accurately ripped with different offset (v1+v2, confidence 2+2/4, offset -659)
    Statistics
        Read error                           : 0
        Jitter error (maybe fixed)           : 0
        Retry sector count                   : 0
        Damaged sector count                 : 0
Track 05
    Filename : /Users/kallen/Music/J.J. Johnson and Nat Adderley - 1977 - Yokohama Concert [FLAC]/05 It Happens.flac
    Track gain               : -4.66 dB
    Peak                     : 1.000000
    CRC32 hash (test run)    : 66041FC8
    CRC32 hash               : 66041FC8
    CRC32 hash (skip zero)   : 67D59885
    AccurateRip v1 signature : 52D8A606 (B75B03F0 w/correction)
    AccurateRip v2 signature : E561A146 (6AD7B0B2 w/correction)
        ->Accurately ripped with different offset (v1+v2, confidence 2+2/4, offset -659)
    Statistics
        Read error                           : 0
        Jitter error (maybe fixed)           : 0
        Retry sector count                   : 0
        Damaged sector count                 : 0
Track 06
    Filename : /Users/kallen/Music/J.J. Johnson and Nat Adderley - 1977 - Yokohama Concert [FLAC]/06 Work Song.flac
    Track gain               : -4.43 dB
    Peak                     : 0.999969
    CRC32 hash (test run)    : B9170891
    CRC32 hash               : B9170891
    CRC32 hash (skip zero)   : CCD1D26D
    AccurateRip v1 signature : 0AE271CE (2F8C1E6D w/correction)
    AccurateRip v2 signature : 53EA67FC (CB331C23 w/correction)
        ->Accurately ripped with different offset (v1+v2, confidence 2+2/4, offset -659)
    Statistics
        Read error                           : 0
        Jitter error (maybe fixed)           : 0
        Retry sector count                   : 0
        Damaged sector count                 : 0
No errors occurred
End of status report
-----BEGIN XLD SIGNATURE-----
5uvSsZLfKYMFpGlFslBYCuxV8X1Nc9mLAxHHi31DNl1zBcyN0ZmRojPNav2LH.YX9m3xXMSIJ5HQSFrgrQc1azy5m49zJDu_N9ZmD_O
-----END XLD SIGNATURE-----
 
 
Содержание индексной карты (.CUE)
TITLE "Yokohama Concert CD1"
PERFORMER "J.J. Johnson & Nat Adderley"
REM GENRE "Jazz"
REM DATE "1977"
REM DISCID 400AE806
REM REPLAYGAIN_ALBUM_GAIN -4.54 dB
REM REPLAYGAIN_ALBUM_PEAK 1.000000
FILE "01 - Horace.flac" WAVE
  TRACK 01 AUDIO
    TITLE "Horace"
    REM REPLAYGAIN_TRACK_GAIN -4.79 dB
    REM REPLAYGAIN_TRACK_PEAK 1.000000
    INDEX 01 00:00:00
FILE "02 - Cyclops.flac" WAVE
  TRACK 02 AUDIO
    TITLE "Cyclops"
    REM REPLAYGAIN_TRACK_GAIN -4.65 dB
    REM REPLAYGAIN_TRACK_PEAK 1.000000
    INDEX 01 00:00:00
FILE "03 - Why Not.flac" WAVE
  TRACK 03 AUDIO
    TITLE "Why Not"
    REM REPLAYGAIN_TRACK_GAIN -4.27 dB
    REM REPLAYGAIN_TRACK_PEAK 1.000000
    INDEX 01 00:00:00
FILE "04 - Splashes.flac" WAVE
  TRACK 04 AUDIO
    TITLE "Splashes"
    REM REPLAYGAIN_TRACK_GAIN -4.42 dB
    REM REPLAYGAIN_TRACK_PEAK 1.000000
    INDEX 01 00:00:00
FILE "05 - It Happens.flac" WAVE
  TRACK 05 AUDIO
    TITLE "It Happens"
    REM REPLAYGAIN_TRACK_GAIN -4.66 dB
    REM REPLAYGAIN_TRACK_PEAK 1.000000
    INDEX 01 00:00:00
FILE "06 - Work Song.flac" WAVE
  TRACK 06 AUDIO
    TITLE "Work Song"
    REM REPLAYGAIN_TRACK_GAIN -4.43 dB
    REM REPLAYGAIN_TRACK_PEAK 0.999969
    INDEX 01 00:00:00
 
 
Отчет CUETools
[CUETools log; Date: 10.09.2018 12:33:39; Version: 2.1.5]
[CTDB TOCID: yizDaH_mmNEqMpDrsQZkeQ_jFeI-] found.
Track | CTDB Status
  1   | (1/1) Accurately ripped
  2   | (1/1) Accurately ripped
  3   | (1/1) Accurately ripped
  4   | (1/1) Accurately ripped
  5   | (1/1) Accurately ripped
  6   | (1/1) Accurately ripped
[AccurateRip ID: 000b0345-003b41a4-400ae806] found.
Track   [  CRC   |   V2   ] Status
 01     [8d7c495f|1efef173] (0+0/4) No match
 02     [7c74f548|e7c60957] (0+0/4) No match
 03     [165418a0|1a2334c0] (0+0/4) No match
 04     [96f97c1a|c4068481] (0+0/4) No match
 05     [52d8a606|e561a146] (0+0/4) No match
 06     [0ae271ce|53ea67fc] (0+0/4) No match
Offsetted by -659:
 01     [cb9c3c44] (2/4) Accurately ripped
 02     [4fd545dc] (2/4) Accurately ripped
 03     [98dc0b36] (2/4) Accurately ripped
 04     [c7bcd4f7] (2/4) Accurately ripped
 05     [b75b03f0] (2/4) Accurately ripped
 06     [2f8c1e6d] (2/4) Accurately ripped
Track Peak [ CRC32  ] [W/O NULL]
 --  100,0 [C4406D72] [5C1783D9]
 01  100,0 [3A589BFC] [E5FADCA6]
 02  100,0 [9FCA13AA] [46DB5732]
 03  100,0 [FF28DE98] [3D413CAC]
 04  100,0 [C3121C13] [BBB35D66]
 05  100,0 [66041FC8] [67D59885]
 06  100,0 [B9170891] [CCD1D26D]
 
 
CD2 {37:11}
01. Walkin' (Carpenter) - 10:01
02. Jevin (Johnson) - 5:29
03. Lament (Johnson) - 3:49
04. Hummin' (Adderley) - 8:48
05. Melodee (Johnson) - 9:04
 
 
Лог создания рипа
X Lossless Decoder version 20170729 (150.3)
XLD extraction logfile from 2018-09-08 19:51:24 -0700
J.J. Johnson and Nat Adderley / Yokohama Concert
Used drive : HL-DT-ST DVDRW  GS41N (revision UA04)
Media type : Pressed CD
Ripper mode             : XLD Secure Ripper
Disable audio cache     : OK for the drive with a cache less than 1375KiB
Make use of C2 pointers : NO
Read offset correction  : 6
Max retry count         : 20
Gap status              : Analyzed, Appended
TOC of the extracted CD
     Track |   Start  |  Length  | Start sector | End sector
    ---------------------------------------------------------
        1  | 00:00:00 | 10:01:02 |         0    |    45076
        2  | 10:01:02 | 05:29:25 |     45077    |    69776
        3  | 15:30:27 | 03:48:48 |     69777    |    86924
        4  | 19:19:00 | 08:48:05 |     86925    |   126529
        5  | 28:07:05 | 09:03:62 |    126530    |   167316
List of alternate offset correction values
        #  | Absolute | Relative | Confidence
    ------------------------------------------
        1  |    -85   |    -91   |      4
AccurateRip Summary (DiscID: 0007900a-0022d8da-3a08b605)
    Track 01 : OK (v1+v2, confidence 4/4, with different offset)
    Track 02 : OK (v1+v2, confidence 4/4, with different offset)
    Track 03 : OK (v1+v2, confidence 4/4, with different offset)
    Track 04 : OK (v1+v2, confidence 4/4, with different offset)
    Track 05 : OK (v1+v2, confidence 4/4, with different offset)
        ->All tracks accurately ripped.
All Tracks
    Album gain               : -5.02 dB
    Peak                     : 1.000000
    Statistics
        Read error                           : 0
        Jitter error (maybe fixed)           : 0
        Retry sector count                   : 0
        Damaged sector count                 : 0
Track 01
    Filename : /Users/kallen/Music/J.J. Johnson and Nat Adderley - 1997 - Yokohama Concert [FLAC]/01 Walkin'.flac
    Pre-gap length : 00:02:00
    Track gain               : -4.90 dB
    Peak                     : 1.000000
    CRC32 hash (test run)    : C8D47A29
    CRC32 hash               : C8D47A29
    CRC32 hash (skip zero)   : 38C321D6
    AccurateRip v1 signature : 0E99503A (99D3DBF4 w/correction)
    AccurateRip v2 signature : D5FCE4ED (6B05678F w/correction)
        ->Accurately ripped with different offset (v1+v2, confidence 2+2/4, offset -91)
    Statistics
        Read error                           : 0
        Jitter error (maybe fixed)           : 0
        Retry sector count                   : 0
        Damaged sector count                 : 0
Track 02
    Filename : /Users/kallen/Music/J.J. Johnson and Nat Adderley - 1997 - Yokohama Concert [FLAC]/02 Jevin.flac
    Track gain               : -3.59 dB
    Peak                     : 1.000000
    CRC32 hash (test run)    : D3D0BA02
    CRC32 hash               : D3D0BA02
    CRC32 hash (skip zero)   : 82DE8C87
    AccurateRip v1 signature : D7E95816 (3E98D2DC w/correction)
    AccurateRip v2 signature : E21FA3C7 (41DC66A0 w/correction)
        ->Accurately ripped with different offset (v1+v2, confidence 2+2/4, offset -91)
    Statistics
        Read error                           : 0
        Jitter error (maybe fixed)           : 0
        Retry sector count                   : 0
        Damaged sector count                 : 0
Track 03
    Filename : /Users/kallen/Music/J.J. Johnson and Nat Adderley - 1997 - Yokohama Concert [FLAC]/03 Lament.flac
    Track gain               : -2.24 dB
    Peak                     : 0.814240
    CRC32 hash (test run)    : D005EFCB
    CRC32 hash               : D005EFCB
    CRC32 hash (skip zero)   : EBD4987E
    AccurateRip v1 signature : 69980B63 (A1588939 w/correction)
    AccurateRip v2 signature : 52B18D09 (6DB8202E w/correction)
        ->Accurately ripped with different offset (v1+v2, confidence 2+2/4, offset -91)
    Statistics
        Read error                           : 0
        Jitter error (maybe fixed)           : 0
        Retry sector count                   : 0
        Damaged sector count                 : 0
Track 04
    Filename : /Users/kallen/Music/J.J. Johnson and Nat Adderley - 1997 - Yokohama Concert [FLAC]/04 Hummin'.flac
    Pre-gap length : 00:01:05
    Track gain               : -5.31 dB
    Peak                     : 1.000000
    CRC32 hash (test run)    : 9CA430ED
    CRC32 hash               : 9CA430ED
    CRC32 hash (skip zero)   : 3D34F255
    AccurateRip v1 signature : FE75B389 (DF70437C w/correction)
    AccurateRip v2 signature : CECADBEC (ADCACA71 w/correction)
        ->Accurately ripped with different offset (v1+v2, confidence 2+2/4, offset -91)
    Statistics
        Read error                           : 0
        Jitter error (maybe fixed)           : 0
        Retry sector count                   : 0
        Damaged sector count                 : 0
Track 05
    Filename : /Users/kallen/Music/J.J. Johnson and Nat Adderley - 1997 - Yokohama Concert [FLAC]/05 Melodee.flac
    Track gain               : -5.86 dB
    Peak                     : 1.000000
    CRC32 hash (test run)    : 2986A6BD
    CRC32 hash               : 2986A6BD
    CRC32 hash (skip zero)   : 2DD6456E
    AccurateRip v1 signature : 9374D593 (B1AE0152 w/correction)
    AccurateRip v2 signature : 5CD9B492 (BDED3B40 w/correction)
        ->Accurately ripped with different offset (v1+v2, confidence 2+2/4, offset -91)
    Statistics
        Read error                           : 0
        Jitter error (maybe fixed)           : 0
        Retry sector count                   : 0
        Damaged sector count                 : 0
No errors occurred
End of status report
-----BEGIN XLD SIGNATURE-----
66GDOe0h1vItzaSQBPJtBPyhAvyHwl3tLOf_eh6oofguSkhQOyHRwR2zPp2O5gH704Na5BJGoYq1Yuq40GsC_jWcuCR6fohgZB_tiE4
-----END XLD SIGNATURE-----
 
 
Содержание индексной карты (.CUE)
TITLE "Yokohama Concert CD2"
PERFORMER "J.J. Johnson & Nat Adderley"
REM GENRE "Jazz"
REM DATE "1977"
REM DISCID 3A08B605
REM REPLAYGAIN_ALBUM_GAIN -5.02 dB
REM REPLAYGAIN_ALBUM_PEAK 1.000000
FILE "01 - Walkin'.flac" WAVE
  TRACK 01 AUDIO
    TITLE "Walkin'"
    REM REPLAYGAIN_TRACK_GAIN -4.90 dB
    REM REPLAYGAIN_TRACK_PEAK 1.000000
    INDEX 01 00:00:00
FILE "02 - Jevin.flac" WAVE
  TRACK 02 AUDIO
    TITLE "Jevin"
    REM REPLAYGAIN_TRACK_GAIN -3.59 dB
    REM REPLAYGAIN_TRACK_PEAK 1.000000
    INDEX 01 00:00:00
FILE "03 - Lament.flac" WAVE
  TRACK 03 AUDIO
    TITLE "Lament"
    REM REPLAYGAIN_TRACK_GAIN -2.24 dB
    REM REPLAYGAIN_TRACK_PEAK 0.814240
    INDEX 01 00:00:00
  TRACK 04 AUDIO
    TITLE "Hummin'"
    REM REPLAYGAIN_TRACK_GAIN -5.31 dB
    REM REPLAYGAIN_TRACK_PEAK 1.000000
    INDEX 00 03:47:43
FILE "04 - Hummin'.flac" WAVE
    INDEX 01 00:00:00
FILE "05 - Melodee.flac" WAVE
  TRACK 05 AUDIO
    TITLE "Melodee"
    REM REPLAYGAIN_TRACK_GAIN -5.86 dB
    REM REPLAYGAIN_TRACK_PEAK 1.000000
    INDEX 01 00:00:00
 
 
Отчет CUETools
[CUETools log; Date: 10.09.2018 12:33:42; Version: 2.1.5]
[CTDB TOCID: 64nJHqytediaR49sxlVI6EW4Z1U-] found.
Track | CTDB Status
  1   | (1/1) Accurately ripped
  2   | (1/1) Accurately ripped
  3   | (1/1) Accurately ripped
  4   | (1/1) Accurately ripped
  5   | (1/1) Accurately ripped
[AccurateRip ID: 0007900a-0022d8da-3a08b605] found.
Track   [  CRC   |   V2   ] Status
 01     [0e99503a|d5fce4ed] (0+0/4) No match
 02     [d7e95816|e21fa3c7] (0+0/4) No match
 03     [69980b63|52b18d09] (0+0/4) No match
 04     [fe75b389|cecadbec] (0+0/4) No match
 05     [9374d593|5cd9b492] (0+0/4) No match
Offsetted by -91:
 01     [99d3dbf4] (2/4) Accurately ripped
 02     [3e98d2dc] (2/4) Accurately ripped
 03     [a1588939] (2/4) Accurately ripped
 04     [df70437c] (2/4) Accurately ripped
 05     [b1ae0152] (2/4) Accurately ripped
Track Peak [ CRC32  ] [W/O NULL]
 --  100,0 [6B434FEB] [3303CA9F]
 01  100,0 [C8D47A29] [38C321D6]
 02  100,0 [D3D0BA02] [82DE8C87]
 03   81,4 [D005EFCB] [EBD4987E]
 04  100,0 [9CA430ED] [3D34F255]
 05  100,0 [2986A6BD] [2DD6456E]
 
 
AllMusic Review by Scott Yanow
Trombonist J.J. Johnson's first recording in eight years (he had spent much of the 1965-76 period working nearly full-time as an arranger/composer) is a live double-LP set with a quintet also including cornetist Nat Adderley, keyboardist Billy Childs, bassist Tony Dumas and drummer Kevin Johnson of the 11 songs, only four could be considered standards with "Walkin'" being the only piece not written by Johnson, Adderley or Dumas. The music is challenging and well-played if not overly exciting, but it did result in J.J. Johnson returning to a much busier schedule as a trombonist again.
 
 
Состав
J.J. Johnson - trombone
Nat Adderley - trumpet
Billy Childs - keyboards
Tony Dumas - bass
Kevin Johnson - drums
Recorded at Kanagawa Kenritsu Ongakudo, Yokohama on April 20, 1977.
По всем вопросам пишите личное сообщение пользователю M0p94ok.
10:58
433
Нет комментариев. Ваш будет первым!