Поиск

(Hard Bop, Bop, Post-Bop, Big Band, Vocal Jazz, Swing, Cool Jazz, Avant-Garde Jazz ) VA - Ken Burns Jazz: The Story of American Music (22 CD) - 2000 , FLAC (tracks+.cue), lossless

(Hard Bop, Bop, Post-Bop, Big Band, Vocal Jazz, Swing, Cool Jazz, Avant-Garde Jazz ) VA - Ken Burns Jazz: The Story of American Music (22 CD) - 2000 , FLAC (tracks+.cue), lossless
Треклист:
Various Artists - Ken Burns Jazz: The Story of American Music (22 CD) Жанр: Hard Bop, Bop, Post-Bop, Big Band, Vocal Jazz, Swing, Cool Jazz, Avant-Garde Jazz
Страна-производитель диска: US
Год издания диска: 2000
Издатель (лейбл): Columbia/Legacy & Verve Records
Аудиокодек: FLAC (*.flac)
Тип рипа: tracks+.cue
Битрейт аудио: lossless
Источник (релизер): VIIНаличие сканов в содержимом раздачи: нет
 
Art Blakey
 
Треклист
01. Confirmation [09:07]
02. Doodlin' [06:44]
03. Evidence [06:41]
04. Moanin' [09:32]
05. Blues March [06:14]
06. A Night In Tunisia [11:12]
07. Free For All [11:07]
08. When Love Is New [06:02]
09. Ms. B.C. [06:44]
Лейбл: Verve Records
Продолжительность: 01:13:47
 
Лог создания рипа
Exact Audio Copy V0.99 prebeta 4 from 23. January 2008
EAC extraction logfile from 24. October 2008, 18:05
Art Blakey / Ken Burns Jazz: The Definitive Art Blakey
Used drive : HL-DT-STDVD-RAM GSA-H22L Adapter: 0 ID: 0
Read mode : Secure
Utilize accurate stream : Yes
Defeat audio cache : Yes
Make use of C2 pointers : No
Read offset correction : 102
Overread into Lead-In and Lead-Out : No
Fill up missing offset samples with silence : Yes
Delete leading and trailing silent blocks : No
Null samples used in CRC calculations : Yes
Used interface : Installed external ASPI interface
Gap handling : Appended to previous track
Used output format : User Defined Encoder
Selected bitrate : 320 kBit/s
Quality : High
Add ID3 tag : No
Command line compressor : C:\Program Files\Exact Audio Copy\flac.exe
Additional command line options : -V -8 -T "artist=%a" -T "title=%t" -T "album=%g" -T "date=%y" -T "tracknumber=%n" -T "genre=%m" %s
TOC of the extracted CD
Track | Start | Length | Start sector | End sector
---------------------------------------------------------
1 | 0:00.00 | 9:10.32 | 0 | 41281
2 | 9:10.32 | 6:47.50 | 41282 | 71856
3 | 15:58.07 | 6:44.28 | 71857 | 102184
4 | 22:42.35 | 9:35.12 | 102185 | 145321
5 | 32:17.47 | 6:14.60 | 145322 | 173431
6 | 38:32.32 | 11:15.50 | 173432 | 224106
7 | 49:48.07 | 11:09.63 | 224107 | 274344
8 | 60:57.70 | 6:05.27 | 274345 | 301746
9 | 67:03.22 | 6:44.28 | 301747 | 332074
Track 1
Filename C:\Torrent Utopia\EAC Rips\Art Blakey\2000 - Ken Burns Jazz- The Definitive Art Blakey\01 - Confirmation.wav
Pre-gap length 0:00:02.00
Peak level 99.0 %
Track quality 100.0 %
Test CRC B828753E
Copy CRC B828753E
Accurately ripped (confidence 3) [D405C4FE]
Copy OK
Track 2
Filename C:\Torrent Utopia\EAC Rips\Art Blakey\2000 - Ken Burns Jazz- The Definitive Art Blakey\02 - Doodlin'.wav
Pre-gap length 0:00:02.93
Peak level 100.0 %
Track quality 100.0 %
Test CRC 28F5802A
Copy CRC 28F5802A
Accurately ripped (confidence 3) [04B2F280]
Copy OK
Track 3
Filename C:\Torrent Utopia\EAC Rips\Art Blakey\2000 - Ken Burns Jazz- The Definitive Art Blakey\03 - Evidence.wav
Pre-gap length 0:00:03.40
Peak level 100.0 %
Track quality 100.0 %
Test CRC 83F4F18F
Copy CRC 83F4F18F
Accurately ripped (confidence 3) [67577B8D]
Copy OK
Track 4
Filename C:\Torrent Utopia\EAC Rips\Art Blakey\2000 - Ken Burns Jazz- The Definitive Art Blakey\04 - Moanin'.wav
Pre-gap length 0:00:02.70
Peak level 97.7 %
Track quality 100.0 %
Test CRC 9D885D31
Copy CRC 9D885D31
Accurately ripped (confidence 3) [F36F6A9D]
Copy OK
Track 5
Filename C:\Torrent Utopia\EAC Rips\Art Blakey\2000 - Ken Burns Jazz- The Definitive Art Blakey\05 - Blues March.wav
Pre-gap length 0:00:02.96
Peak level 100.0 %
Track quality 100.0 %
Test CRC 395F0B51
Copy CRC 395F0B51
Accurately ripped (confidence 3) [CAB8C2D0]
Copy OK
Track 6
Filename C:\Torrent Utopia\EAC Rips\Art Blakey\2000 - Ken Burns Jazz- The Definitive Art Blakey\06 - A Night In Tunisia.wav
Pre-gap length 0:00:00.46
Peak level 97.9 %
Track quality 100.0 %
Test CRC F05B69D7
Copy CRC F05B69D7
Accurately ripped (confidence 3) [7DA4A47C]
Copy OK
Track 7
Filename C:\Torrent Utopia\EAC Rips\Art Blakey\2000 - Ken Burns Jazz- The Definitive Art Blakey\07 - Free For All.wav
Pre-gap length 0:00:02.82
Peak level 99.9 %
Track quality 100.0 %
Test CRC 7945C7D6
Copy CRC 7945C7D6
Accurately ripped (confidence 3) [1A5E37CD]
Copy OK
Track 8
Filename C:\Torrent Utopia\EAC Rips\Art Blakey\2000 - Ken Burns Jazz- The Definitive Art Blakey\08 - When Love Is New.wav
Pre-gap length 0:00:02.80
Peak level 99.9 %
Track quality 100.0 %
Test CRC CF9E0E20
Copy CRC CF9E0E20
Accurately ripped (confidence 3) [AD0E2A01]
Copy OK
Track 9
Filename C:\Torrent Utopia\EAC Rips\Art Blakey\2000 - Ken Burns Jazz- The Definitive Art Blakey\09 - Ms. B.C..wav
Pre-gap length 0:00:03.29
Peak level 97.5 %
Track quality 100.0 %
Test CRC 256DAB49
Copy CRC 256DAB49
Accurately ripped (confidence 3) [FFC60580]
Copy OK
All tracks accurately ripped
No errors occurred
End of status report
 
Содержание индексной карты (.CUE)
REM GENRE Jazz
REM DATE 2000
REM DISCID 81114B09
REM COMMENT "ExactAudioCopy v0.99pb4"
PERFORMER "Art Blakey"
TITLE "Ken Burns Jazz: The Definitive Art Blakey"
FILE "01 - Confirmation.wav" WAVE
TRACK 01 AUDIO
TITLE "Confirmation"
PERFORMER "Art Blakey"
INDEX 01 00:00:00
TRACK 02 AUDIO
TITLE "Doodlin'"
PERFORMER "Art Blakey"
INDEX 00 09:07:37
FILE "02 - Doodlin'.wav" WAVE
INDEX 01 00:00:00
TRACK 03 AUDIO
TITLE "Evidence"
PERFORMER "Art Blakey"
INDEX 00 06:44:20
FILE "03 - Evidence.wav" WAVE
INDEX 01 00:00:00
TRACK 04 AUDIO
TITLE "Moanin'"
PERFORMER "Art Blakey"
INDEX 00 06:41:50
FILE "04 - Moanin'.wav" WAVE
INDEX 01 00:00:00
TRACK 05 AUDIO
TITLE "Blues March"
PERFORMER "Art Blakey"
INDEX 00 09:32:15
FILE "05 - Blues March.wav" WAVE
INDEX 01 00:00:00
TRACK 06 AUDIO
TITLE "A Night In Tunisia"
PERFORMER "Art Blakey"
INDEX 00 06:14:25
FILE "06 - A Night In Tunisia.wav" WAVE
INDEX 01 00:00:00
TRACK 07 AUDIO
TITLE "Free For All"
PERFORMER "Art Blakey"
INDEX 00 11:12:63
FILE "07 - Free For All.wav" WAVE
INDEX 01 00:00:00
TRACK 08 AUDIO
TITLE "When Love Is New"
PERFORMER "Art Blakey"
INDEX 00 11:07:03
FILE "08 - When Love Is New.wav" WAVE
INDEX 01 00:00:00
TRACK 09 AUDIO
TITLE "Ms. B.C."
PERFORMER "Art Blakey"
INDEX 00 06:02:05
FILE "09 - Ms. B.C..wav" WAVE
INDEX 01 00:00:00
 
Состав
Art Blakey (spoken vocals, drums); Lou Donaldson (alto saxophone); Hank Mobley, Johnny Griffin, Wayne Shorter, Benny Golson, Bill Pierce (tenor saxophone); Clifford Brown , Freddie Hubbard, Kenny Dorham, Lee Morgan , Wynton Marsalis, Bill Hardman (trumpet); Curtis Fuller (trombone); Horace Silver, Thelonious Monk, James Williams , Bobby Timmons, Cedar Walton (piano)
 
Benny Goodman
 
Треклист
01. Waitin' for Katie [03:01]
02. Clarinetitis [02:27]
03. It's Tight Like That [02:49]
04. Who? [03:01]
05. Royal Garden Blues [02:59]
06. King Porter Stomp [02:53]
07. Body and Soul [03:25]
08. Roll 'Em [04:15]
09. You Turned the Tables on Me [02:50]
10. Sing, Sing, Sing [08:40]
11. Don't Be That Way [04:19]
12. Avalon [04:13]
13. Flyin' Home [03:17]
14. Rose Room [02:48]
15. Let's Dance [02:33]
16. Memories of You [03:13]
17. Benny Rides Again [04:43]
18. Air Mail Special [03:22]
19. Why Don't You Do Right? [03:12]
20. Rachel's Dream [02:53]
21. Undercurrent Blues [03:04]
22. Goodbye [02:50]
Лейбл: Columbia/Legacy
Продолжительность: 01:17:32
 
Лог создания рипа
EAC extraction logfile from 7. September 2008, 0:03 for CD
Benny Goodman / Ken Burns Jazz: The Definitive Benny Goodman
Used drive : HL-DT-STDVDRRW GSA-H20L Adapter: 0 ID: 0
Read mode : Secure with NO C2, accurate stream, disable cache
Read offset correction : 102
Overread into Lead-In and Lead-Out : No
Used output format : C:\Program Files\Exact Audio Copy\flac.exe (User Defined Encoder)
192 kBit/s
Additional command line options : -8 -A tukey(0.25) -A gauss(0.1875) -b 4096 -V -T "artist=%a" -T "title=%t" -T "album=%g" -T "date=%y" -T "tracknumber=%n" -T "genre=%m" %s --sector-align
Other options :
Fill up missing offset samples with silence : Yes
Delete leading and trailing silent blocks : No
Installed external ASPI interface
Track 1
Filename K:\My Music\Benny Goodman\Ken Burns Jazz\Ken Burns Jazz FLAC\01 - Waitin' for Katie.wav
Pre-gap length 0:00:02.00
Peak level 100.0 %
Track quality 99.9 %
Test CRC 72A1F900
Copy CRC 72A1F900
Copy OK
Track 2
Filename K:\My Music\Benny Goodman\Ken Burns Jazz\Ken Burns Jazz FLAC\02 - Clarinetitis.wav
Pre-gap length 0:00:02.46
Peak level 82.5 %
Track quality 100.0 %
Test CRC 654F98FE
Copy CRC 654F98FE
Copy OK
Track 3
Filename K:\My Music\Benny Goodman\Ken Burns Jazz\Ken Burns Jazz FLAC\03 - It's Tight Like That.wav
Pre-gap length 0:00:01.10
Peak level 87.9 %
Track quality 100.0 %
Test CRC B2DEBF2B
Copy CRC B2DEBF2B
Copy OK
Track 4
Filename K:\My Music\Benny Goodman\Ken Burns Jazz\Ken Burns Jazz FLAC\04 - Who .wav
Pre-gap length 0:00:02.30
Peak level 94.4 %
Track quality 100.0 %
Test CRC 02378091
Copy CRC 02378091
Copy OK
Track 5
Filename K:\My Music\Benny Goodman\Ken Burns Jazz\Ken Burns Jazz FLAC\05 - Royal Garden Blues.wav
Pre-gap length 0:00:02.13
Peak level 86.9 %
Track quality 100.0 %
Test CRC 09EE895B
Copy CRC 09EE895B
Copy OK
Track 6
Filename K:\My Music\Benny Goodman\Ken Burns Jazz\Ken Burns Jazz FLAC\06 - King Porter Stomp.wav
Pre-gap length 0:00:01.24
Peak level 100.0 %
Track quality 100.0 %
Test CRC AD5008A7
Copy CRC AD5008A7
Copy OK
Track 7
Filename K:\My Music\Benny Goodman\Ken Burns Jazz\Ken Burns Jazz FLAC\07 - Body and Soul.wav
Pre-gap length 0:00:02.50
Peak level 86.6 %
Track quality 100.0 %
Test CRC 2BD5E0C6
Copy CRC 2BD5E0C6
Copy OK
Track 8
Filename K:\My Music\Benny Goodman\Ken Burns Jazz\Ken Burns Jazz FLAC\08 - Roll 'Em.wav
Pre-gap length 0:00:02.13
Peak level 94.4 %
Track quality 100.0 %
Test CRC 6DCCDD53
Copy CRC 6DCCDD53
Copy OK
Track 9
Filename K:\My Music\Benny Goodman\Ken Burns Jazz\Ken Burns Jazz FLAC\09 - You Turned the Tables on Me.wav
Pre-gap length 0:00:01.44
Peak level 97.3 %
Track quality 100.0 %
Test CRC FACBC582
Copy CRC FACBC582
Copy OK
Track 10
Filename K:\My Music\Benny Goodman\Ken Burns Jazz\Ken Burns Jazz FLAC\10 - Sing, Sing, Sing.wav
Pre-gap length 0:00:01.60
Peak level 84.1 %
Track quality 100.0 %
Test CRC FEF3F345
Copy CRC FEF3F345
Copy OK
Track 11
Filename K:\My Music\Benny Goodman\Ken Burns Jazz\Ken Burns Jazz FLAC\11 - Don't Be That Way.wav
Pre-gap length 0:00:01.84
Peak level 89.1 %
Track quality 100.0 %
Test CRC E9FDAAC1
Copy CRC E9FDAAC1
Copy OK
Track 12
Filename K:\My Music\Benny Goodman\Ken Burns Jazz\Ken Burns Jazz FLAC\12 - Avalon.wav
Pre-gap length 0:00:01.16
Peak level 98.8 %
Track quality 99.9 %
Test CRC 275159AB
Copy CRC 275159AB
Copy OK
Track 13
Filename K:\My Music\Benny Goodman\Ken Burns Jazz\Ken Burns Jazz FLAC\13 - Flyin' Home.wav
Pre-gap length 0:00:01.69
Peak level 82.0 %
Track quality 100.0 %
Test CRC 05E54098
Copy CRC 05E54098
Copy OK
Track 14
Filename K:\My Music\Benny Goodman\Ken Burns Jazz\Ken Burns Jazz FLAC\14 - Rose Room.wav
Pre-gap length 0:00:01.73
Peak level 83.1 %
Track quality 100.0 %
Test CRC A0FAEB40
Copy CRC A0FAEB40
Copy OK
Track 15
Filename K:\My Music\Benny Goodman\Ken Burns Jazz\Ken Burns Jazz FLAC\15 - Let's Dance.wav
Pre-gap length 0:00:01.73
Peak level 86.6 %
Track quality 100.0 %
Test CRC 1F06FDFE
Copy CRC 1F06FDFE
Copy OK
Track 16
Filename K:\My Music\Benny Goodman\Ken Burns Jazz\Ken Burns Jazz FLAC\16 - Memories of You.wav
Pre-gap length 0:00:02.06
Peak level 92.4 %
Track quality 100.0 %
Test CRC 1DEA699D
Copy CRC 1DEA699D
Copy OK
Track 17
Filename K:\My Music\Benny Goodman\Ken Burns Jazz\Ken Burns Jazz FLAC\17 - Benny Rides Again.wav
Pre-gap length 0:00:01.93
Peak level 84.1 %
Track quality 100.0 %
Test CRC A9455B1B
Copy CRC A9455B1B
Copy OK
Track 18
Filename K:\My Music\Benny Goodman\Ken Burns Jazz\Ken Burns Jazz FLAC\18 - Air Mail Special.wav
Pre-gap length 0:00:01.70
Peak level 98.3 %
Track quality 99.9 %
Test CRC 85BFEFF8
Copy CRC 85BFEFF8
Copy OK
Track 19
Filename K:\My Music\Benny Goodman\Ken Burns Jazz\Ken Burns Jazz FLAC\19 - Why Don't You Do Right .wav
Peak level 87.1 %
Track quality 100.0 %
Test CRC 9C9FB45C
Copy CRC 9C9FB45C
Copy OK
Track 20
Filename K:\My Music\Benny Goodman\Ken Burns Jazz\Ken Burns Jazz FLAC\20 - Rachel's Dream.wav
Pre-gap length 0:00:01.60
Peak level 81.8 %
Track quality 100.0 %
Test CRC 3A57931D
Copy CRC 3A57931D
Copy OK
Track 21
Filename K:\My Music\Benny Goodman\Ken Burns Jazz\Ken Burns Jazz FLAC\21 - Undercurrent Blues.wav
Pre-gap length 0:00:01.80
Peak level 83.5 %
Track quality 99.9 %
Test CRC 02ADC977
Copy CRC 02ADC977
Copy OK
Track 22
Filename K:\My Music\Benny Goodman\Ken Burns Jazz\Ken Burns Jazz FLAC\22 - Goodbye.wav
Pre-gap length 0:00:01.33
Peak level 69.3 %
Track quality 100.0 %
Test CRC 58E31333
Copy CRC 58E31333
Copy OK
No errors occured
End of status report
 
Содержание индексной карты (.CUE)
PERFORMER "Benny Goodman"
TITLE "Ken Burns Jazz: The Definitive Benny Goodman"
FILE "01 - Waitin' for Katie.wav" WAVE
TRACK 01 AUDIO
TITLE "Waitin' for Katie"
PERFORMER "Benny Goodman"
INDEX 01 00:00:00
TRACK 02 AUDIO
TITLE "Clarinetitis"
PERFORMER "Benny Goodman"
INDEX 00 03:01:37
FILE "02 - Clarinetitis.wav" WAVE
INDEX 01 00:00:00
TRACK 03 AUDIO
TITLE "It's Tight Like That"
PERFORMER "Benny Goodman"
INDEX 00 02:27:50
FILE "03 - It's Tight Like That.wav" WAVE
INDEX 01 00:00:00
TRACK 04 AUDIO
TITLE "Who?"
PERFORMER "Benny Goodman"
INDEX 00 02:49:12
FILE "04 - Who .wav" WAVE
INDEX 01 00:00:00
TRACK 05 AUDIO
TITLE "Royal Garden Blues"
PERFORMER "Benny Goodman"
INDEX 00 03:01:72
FILE "05 - Royal Garden Blues.wav" WAVE
INDEX 01 00:00:00
TRACK 06 AUDIO
TITLE "King Porter Stomp"
PERFORMER "Benny Goodman"
INDEX 00 02:59:35
FILE "06 - King Porter Stomp.wav" WAVE
INDEX 01 00:00:00
TRACK 07 AUDIO
TITLE "Body and Soul"
PERFORMER "Benny Goodman"
INDEX 00 02:53:22
FILE "07 - Body and Soul.wav" WAVE
INDEX 01 00:00:00
TRACK 08 AUDIO
TITLE "Roll 'Em"
PERFORMER "Benny Goodman"
INDEX 00 03:25:60
FILE "08 - Roll 'Em.wav" WAVE
INDEX 01 00:00:00
TRACK 09 AUDIO
TITLE "You Turned the Tables on Me"
PERFORMER "Benny Goodman"
INDEX 00 04:15:47
FILE "09 - You Turned the Tables on Me.wav" WAVE
INDEX 01 00:00:00
TRACK 10 AUDIO
TITLE "Sing, Sing, Sing"
PERFORMER "Benny Goodman"
INDEX 00 02:50:62
FILE "10 - Sing, Sing, Sing.wav" WAVE
INDEX 01 00:00:00
TRACK 11 AUDIO
TITLE "Don't Be That Way"
PERFORMER "Benny Goodman"
INDEX 00 08:40:40
FILE "11 - Don't Be That Way.wav" WAVE
INDEX 01 00:00:00
TRACK 12 AUDIO
TITLE "Avalon"
PERFORMER "Benny Goodman"
INDEX 00 04:19:25
FILE "12 - Avalon.wav" WAVE
INDEX 01 00:00:00
TRACK 13 AUDIO
TITLE "Flyin' Home"
PERFORMER "Benny Goodman"
INDEX 00 04:13:48
FILE "13 - Flyin' Home.wav" WAVE
INDEX 01 00:00:00
TRACK 14 AUDIO
TITLE "Rose Room"
PERFORMER "Benny Goodman"
INDEX 00 03:17:23
FILE "14 - Rose Room.wav" WAVE
INDEX 01 00:00:00
TRACK 15 AUDIO
TITLE "Let's Dance"
PERFORMER "Benny Goodman"
INDEX 00 02:48:17
FILE "15 - Let's Dance.wav" WAVE
INDEX 01 00:00:00
TRACK 16 AUDIO
TITLE "Memories of You"
PERFORMER "Benny Goodman"
INDEX 00 02:33:03
FILE "16 - Memories of You.wav" WAVE
INDEX 01 00:00:00
TRACK 17 AUDIO
TITLE "Benny Rides Again"
PERFORMER "Benny Goodman"
INDEX 00 03:13:07
FILE "17 - Benny Rides Again.wav" WAVE
INDEX 01 00:00:00
TRACK 18 AUDIO
TITLE "Air Mail Special"
PERFORMER "Benny Goodman"
INDEX 00 04:43:50
FILE "18 - Air Mail Special.wav" WAVE
INDEX 01 00:00:00
FILE "19 - Why Don't You Do Right .wav" WAVE
TRACK 19 AUDIO
TITLE "Why Don't You Do Right?"
PERFORMER "Benny Goodman"
INDEX 01 00:00:00
TRACK 20 AUDIO
TITLE "Rachel's Dream"
PERFORMER "Benny Goodman"
INDEX 00 03:12:27
FILE "20 - Rachel's Dream.wav" WAVE
INDEX 01 00:00:00
TRACK 21 AUDIO
TITLE "Undercurrent Blues"
PERFORMER "Benny Goodman"
INDEX 00 02:53:55
FILE "21 - Undercurrent Blues.wav" WAVE
INDEX 01 00:00:00
TRACK 22 AUDIO
TITLE "Goodbye"
PERFORMER "Benny Goodman"
INDEX 00 03:04:70
FILE "22 - Goodbye.wav" WAVE
INDEX 01 00:00:00
 
Состав
Benny Goodman (clarinet, trumpet); Fats Waller (vocals, piano); Ben Pollack (vocals, drums); Helen Ward, Peggy Lee (vocals); Mike Bryan, Dave Barbour, Arnold Covarrubias, Frances "Franny" Beecher, Allan Reuss, Billy Bauer (guitar); Charlie Christian (electric guitar); Dick Morgan (banjo); Ted Lewis (clarinet); Louis Martin (alto saxophone, baritone saxophone); Buff Estes, Bob Snyder, Gus Bivona, George Koenig, Clint Neagley, Mitch Goldberg, Angelo Cicalese, Gil Rodin, Ernie Mauro, Al Block, Skip Martin , Toots Mondello, Hymie Schertzer (alto saxophone); Arthur Rollini, Bus Bassey, Jon Walton, Leonard Sims, Larry Binyon, Georgie Auld, Eddie Wasserman, Jack Henderson , Hymie Wolfson, Jerry Jerome, Seldon Powell, Babe Russin, Vido Musso, Wardell Gray, Zoot Sims, Bud Freeman (tenor saxophone); Bob Poland, Larry Molinelli, Gene Allen (baritone saxophone); Adrian Rollini (bass saxophone); Chris Griffin , Irving Goodman, Alec Fila, Tony Faso, Howard Reich, Al Stewart, Lawrence Stearns, Dave Klein, Harry James, Frankie Quartell, Johnny Martel, Red Nichols, Taft Jordan, Ziggy Elman, Jimmy Maxwell, Nick Travis, Doug Mettome, John Frosk, E.V. Perry, Charlie Teagarden (trumpet); Jimmy McPartland, Muggsy Spanier (cornet); Milt Bernhart, Ted Vesely, Charlie Castaldo, Eddie Bert, Red Gingler, Charlie Butterfield, George Brunies, George Monte, Jack Teagarden, Rex Peer, Lou McGarity, Murray McEachern, Vernon Brown, Willie Dennis , Red Ballard (trombone); Harry Goodman, Harry Barth (tuba); Fletcher Henderson, Vic Breidis, Mel Stitzel, Jess Stacy, Joe Sullivan, Johnny Guarnieri, Roland Hanna, Teddy Wilson, Bernie Leighton, Mel Powell, Buddy Greco (piano); Lionel Hampton, Red Norvo (vibraphone); John Lucas, Harry Jaeger, Dave Tough, Gene Krupa, Roy Burns III, Morey Feld, Nick Fatool, Ray Bauduc, Sonny Igoe, Bob Conselman (drums).
 
Billie Holiday
 
Треклист
01. I Cried For You [03:10]
02. What A Little Moonlight Can Do [02:56]
03. Me, Myself And I [02:32]
04. Without Your Love [02:51]
05. Strange Fruit [03:10]
06. Yesterdays [03:23]
07. Some Other Spring [03:01]
08. Solitude [03:12]
09. God Bless The Child [02:53]
10. Gloomy Sunday [03:09]
11. I Cover The Waterfront [02:54]
12. Trav'lin' Light [03:16]
13. Lover Man [03:15]
14. Don't Explain [03:22]
15. Good Morning, Heartache [03:06]
16. Autumn In New York [03:41]
17. Lady Sings The Blues [02:36]
18. Fine And Mellow [09:06]
19. You've Changed [03:17]
Лейбл: Verve Records
Продолжительность: 01:05:45
 
Лог создания рипа
Exact Audio Copy V0.99 prebeta 4 from 23. January 2008
EAC extraction logfile from 19. October 2008, 22:09
Billie Holiday / Ken Burns Jazz: The Definitive Billy Holiday
Used drive : HL-DT-STDVD-RAM GSA-H22L Adapter: 0 ID: 0
Read mode : Secure
Utilize accurate stream : Yes
Defeat audio cache : Yes
Make use of C2 pointers : No
Read offset correction : 102
Overread into Lead-In and Lead-Out : No
Fill up missing offset samples with silence : Yes
Delete leading and trailing silent blocks : No
Null samples used in CRC calculations : Yes
Used interface : Installed external ASPI interface
Gap handling : Appended to previous track
Used output format : User Defined Encoder
Selected bitrate : 320 kBit/s
Quality : High
Add ID3 tag : No
Command line compressor : C:\Program Files\Exact Audio Copy\flac.exe
Additional command line options : -V -8 -T "artist=%a" -T "title=%t" -T "album=%g" -T "date=%y" -T "tracknumber=%n" -T "genre=%m" %s
TOC of the extracted CD
Track | Start | Length | Start sector | End sector
---------------------------------------------------------
1 | 0:00.32 | 3:12.60 | 32 | 14491
2 | 3:13.17 | 2:59.48 | 14492 | 27964
3 | 6:12.65 | 2:37.15 | 27965 | 39754
4 | 8:50.05 | 2:54.15 | 39755 | 52819
5 | 11:44.20 | 3:13.37 | 52820 | 67331
6 | 14:57.57 | 3:25.60 | 67332 | 82766
7 | 18:23.42 | 3:03.55 | 82767 | 96546
8 | 21:27.22 | 3:15.20 | 96547 | 111191
9 | 24:42.42 | 2:55.48 | 111192 | 124364
10 | 27:38.15 | 3:11.27 | 124365 | 138716
11 | 30:49.42 | 2:56.65 | 138717 | 151981
12 | 33:46.32 | 3:19.55 | 151982 | 166961
13 | 37:06.12 | 3:18.58 | 166962 | 181869
14 | 40:24.70 | 3:24.62 | 181870 | 197231
15 | 43:49.57 | 3:08.53 | 197232 | 211384
16 | 46:58.35 | 3:43.60 | 211385 | 228169
17 | 50:42.20 | 2:36.37 | 228170 | 239906
18 | 53:18.57 | 9:09.28 | 239907 | 281109
19 | 62:28.10 | 3:17.05 | 281110 | 295889
Track 1
Filename C:\Torrent Utopia\EAC Rips\Billie Holiday\2000 - Ken Burns Jazz- The Definitive Billy Holiday\01 - I Cried For You.wav
Pre-gap length 0:00:02.42
Peak level 99.6 %
Track quality 100.0 %
Test CRC EB902D87
Copy CRC EB902D87
Track not present in AccurateRip database
Copy OK
Track 2
Filename C:\Torrent Utopia\EAC Rips\Billie Holiday\2000 - Ken Burns Jazz- The Definitive Billy Holiday\02 - What A Little Moonlight Can Do.wav
Pre-gap length 0:00:02.66
Peak level 99.6 %
Track quality 99.9 %
Test CRC 571A06B2
Copy CRC 571A06B2
Track not present in AccurateRip database
Copy OK
Track 3
Filename C:\Torrent Utopia\EAC Rips\Billie Holiday\2000 - Ken Burns Jazz- The Definitive Billy Holiday\03 - Me, Myself And I.wav
Pre-gap length 0:00:03.33
Peak level 99.6 %
Track quality 100.0 %
Test CRC 53091CB8
Copy CRC 53091CB8
Track not present in AccurateRip database
Copy OK
Track 4
Filename C:\Torrent Utopia\EAC Rips\Billie Holiday\2000 - Ken Burns Jazz- The Definitive Billy Holiday\04 - Without Your Love.wav
Pre-gap length 0:00:04.64
Peak level 99.6 %
Track quality 100.0 %
Test CRC C3F44ED8
Copy CRC C3F44ED8
Track not present in AccurateRip database
Copy OK
Track 5
Filename C:\Torrent Utopia\EAC Rips\Billie Holiday\2000 - Ken Burns Jazz- The Definitive Billy Holiday\05 - Strange Fruit.wav
Pre-gap length 0:00:02.57
Peak level 98.4 %
Track quality 100.0 %
Test CRC 739F196E
Copy CRC 739F196E
Track not present in AccurateRip database
Copy OK
Track 6
Filename C:\Torrent Utopia\EAC Rips\Billie Holiday\2000 - Ken Burns Jazz- The Definitive Billy Holiday\06 - Yesterdays.wav
Pre-gap length 0:00:02.60
Peak level 99.6 %
Track quality 100.0 %
Test CRC 51CE281D
Copy CRC 51CE281D
Track not present in AccurateRip database
Copy OK
Track 7
Filename C:\Torrent Utopia\EAC Rips\Billie Holiday\2000 - Ken Burns Jazz- The Definitive Billy Holiday\07 - Some Other Spring.wav
Pre-gap length 0:00:02.46
Peak level 99.0 %
Track quality 100.0 %
Test CRC 12E184FA
Copy CRC 12E184FA
Track not present in AccurateRip database
Copy OK
Track 8
Filename C:\Torrent Utopia\EAC Rips\Billie Holiday\2000 - Ken Burns Jazz- The Definitive Billy Holiday\08 - Solitude.wav
Pre-gap length 0:00:02.60
Peak level 94.5 %
Track quality 99.9 %
Test CRC 2E330D4E
Copy CRC 2E330D4E
Track not present in AccurateRip database
Copy OK
Track 9
Filename C:\Torrent Utopia\EAC Rips\Billie Holiday\2000 - Ken Burns Jazz- The Definitive Billy Holiday\09 - God Bless The Child.wav
Pre-gap length 0:00:02.53
Peak level 99.6 %
Track quality 99.9 %
Test CRC C690A01B
Copy CRC C690A01B
Track not present in AccurateRip database
Copy OK
Track 10
Filename C:\Torrent Utopia\EAC Rips\Billie Holiday\2000 - Ken Burns Jazz- The Definitive Billy Holiday\10 - Gloomy Sunday.wav
Pre-gap length 0:00:02.46
Peak level 74.1 %
Track quality 100.0 %
Test CRC 66B83AAD
Copy CRC 66B83AAD
Track not present in AccurateRip database
Copy OK
Track 11
Filename C:\Torrent Utopia\EAC Rips\Billie Holiday\2000 - Ken Burns Jazz- The Definitive Billy Holiday\11 - I Cover The Waterfront.wav
Pre-gap length 0:00:02.29
Peak level 83.2 %
Track quality 100.0 %
Test CRC 3D989A45
Copy CRC 3D989A45
Track not present in AccurateRip database
Copy OK
Track 12
Filename C:\Torrent Utopia\EAC Rips\Billie Holiday\2000 - Ken Burns Jazz- The Definitive Billy Holiday\12 - Trav'lin' Light.wav
Pre-gap length 0:00:02.42
Peak level 99.6 %
Track quality 100.0 %
Test CRC 8249BF31
Copy CRC 8249BF31
Track not present in AccurateRip database
Copy OK
Track 13
Filename C:\Torrent Utopia\EAC Rips\Billie Holiday\2000 - Ken Burns Jazz- The Definitive Billy Holiday\13 - Lover Man.wav
Pre-gap length 0:00:03.46
Peak level 100.0 %
Track quality 100.0 %
Test CRC 24AC43C3
Copy CRC 24AC43C3
Track not present in AccurateRip database
Copy OK
Track 14
Filename C:\Torrent Utopia\EAC Rips\Billie Holiday\2000 - Ken Burns Jazz- The Definitive Billy Holiday\14 - Don't Explain.wav
Pre-gap length 0:00:02.93
Peak level 100.0 %
Track quality 100.0 %
Test CRC 100DC42A
Copy CRC 100DC42A
Track not present in AccurateRip database
Copy OK
Track 15
Filename C:\Torrent Utopia\EAC Rips\Billie Holiday\2000 - Ken Burns Jazz- The Definitive Billy Holiday\15 - Good Morning, Heartache.wav
Pre-gap length 0:00:02.82
Peak level 100.0 %
Track quality 100.0 %
Test CRC 6C01A2FC
Copy CRC 6C01A2FC
Track not present in AccurateRip database
Copy OK
Track 16
Filename C:\Torrent Utopia\EAC Rips\Billie Holiday\2000 - Ken Burns Jazz- The Definitive Billy Holiday\16 - Autumn In New York.wav
Pre-gap length 0:00:02.46
Peak level 99.6 %
Track quality 99.9 %
Test CRC 180F3A08
Copy CRC 180F3A08
Track not present in AccurateRip database
Copy OK
Track 17
Filename C:\Torrent Utopia\EAC Rips\Billie Holiday\2000 - Ken Burns Jazz- The Definitive Billy Holiday\17 - Lady Sings The Blues.wav
Pre-gap length 0:00:02.33
Peak level 99.6 %
Track quality 100.0 %
Test CRC F5BCAB0E
Copy CRC F5BCAB0E
Track not present in AccurateRip database
Copy OK
Track 18
Filename C:\Torrent Utopia\EAC Rips\Billie Holiday\2000 - Ken Burns Jazz- The Definitive Billy Holiday\18 - Fine And Mellow.wav
Peak level 99.6 %
Track quality 100.0 %
Test CRC 5EFFDD87
Copy CRC 5EFFDD87
Track not present in AccurateRip database
Copy OK
Track 19
Filename C:\Torrent Utopia\EAC Rips\Billie Holiday\2000 - Ken Burns Jazz- The Definitive Billy Holiday\19 - You've Changed.wav
Pre-gap length 0:00:02.70
Peak level 92.5 %
Track quality 100.0 %
Test CRC A75FA130
Copy CRC A75FA130
Track not present in AccurateRip database
Copy OK
None of the tracks are present in the AccurateRip database
No errors occurred
End of status report
 
Содержание индексной карты (.CUE)
REM GENRE Jazz
REM DATE 2000
REM DISCID F70F6913
REM COMMENT "ExactAudioCopy v0.99pb4"
PERFORMER "Billie Holiday"
TITLE "Ken Burns Jazz: The Definitive Billy Holiday"
FILE "01 - I Cried For You.wav" WAVE
TRACK 01 AUDIO
TITLE "I Cried For You"
PERFORMER "Billie Holiday"
PREGAP 00:00:32
INDEX 01 00:00:00
TRACK 02 AUDIO
TITLE "What A Little Moonlight Can Do"
PERFORMER "Billie Holiday"
INDEX 00 03:10:10
FILE "02 - What A Little Moonlight Can Do.wav" WAVE
INDEX 01 00:00:00
TRACK 03 AUDIO
TITLE "Me, Myself And I"
PERFORMER "Billie Holiday"
INDEX 00 02:56:23
FILE "03 - Me, Myself And I.wav" WAVE
INDEX 01 00:00:00
TRACK 04 AUDIO
TITLE "Without Your Love"
PERFORMER "Billie Holiday"
INDEX 00 02:32:42
FILE "04 - Without Your Love.wav" WAVE
INDEX 01 00:00:00
TRACK 05 AUDIO
TITLE "Strange Fruit"
PERFORMER "Billie Holiday"
INDEX 00 02:51:47
FILE "05 - Strange Fruit.wav" WAVE
INDEX 01 00:00:00
TRACK 06 AUDIO
TITLE "Yesterdays"
PERFORMER "Billie Holiday"
INDEX 00 03:10:67
FILE "06 - Yesterdays.wav" WAVE
INDEX 01 00:00:00
TRACK 07 AUDIO
TITLE "Some Other Spring"
PERFORMER "Billie Holiday"
INDEX 00 03:23:25
FILE "07 - Some Other Spring.wav" WAVE
INDEX 01 00:00:00
TRACK 08 AUDIO
TITLE "Solitude"
PERFORMER "Billie Holiday"
INDEX 00 03:01:10
FILE "08 - Solitude.wav" WAVE
INDEX 01 00:00:00
TRACK 09 AUDIO
TITLE "God Bless The Child"
PERFORMER "Billie Holiday"
INDEX 00 03:12:55
FILE "09 - God Bless The Child.wav" WAVE
INDEX 01 00:00:00
TRACK 10 AUDIO
TITLE "Gloomy Sunday"
PERFORMER "Billie Holiday"
INDEX 00 02:53:13
FILE "10 - Gloomy Sunday.wav" WAVE
INDEX 01 00:00:00
TRACK 11 AUDIO
TITLE "I Cover The Waterfront"
PERFORMER "Billie Holiday"
INDEX 00 03:09:05
FILE "11 - I Cover The Waterfront.wav" WAVE
INDEX 01 00:00:00
TRACK 12 AUDIO
TITLE "Trav'lin' Light"
PERFORMER "Billie Holiday"
INDEX 00 02:54:33
FILE "12 - Trav'lin' Light.wav" WAVE
INDEX 01 00:00:00
TRACK 13 AUDIO
TITLE "Lover Man"
PERFORMER "Billie Holiday"
INDEX 00 03:16:20
FILE "13 - Lover Man.wav" WAVE
INDEX 01 00:00:00
TRACK 14 AUDIO
TITLE "Don't Explain"
PERFORMER "Billie Holiday"
INDEX 00 03:15:63
FILE "14 - Don't Explain.wav" WAVE
INDEX 01 00:00:00
TRACK 15 AUDIO
TITLE "Good Morning, Heartache"
PERFORMER "Billie Holiday"
INDEX 00 03:22:00
FILE "15 - Good Morning, Heartache.wav" WAVE
INDEX 01 00:00:00
TRACK 16 AUDIO
TITLE "Autumn In New York"
PERFORMER "Billie Holiday"
INDEX 00 03:06:18
FILE "16 - Autumn In New York.wav" WAVE
INDEX 01 00:00:00
TRACK 17 AUDIO
TITLE "Lady Sings The Blues"
PERFORMER "Billie Holiday"
INDEX 00 03:41:35
FILE "17 - Lady Sings The Blues.wav" WAVE
INDEX 01 00:00:00
FILE "18 - Fine And Mellow.wav" WAVE
TRACK 18 AUDIO
TITLE "Fine And Mellow"
PERFORMER "Billie Holiday"
INDEX 01 00:00:00
TRACK 19 AUDIO
TITLE "You've Changed"
PERFORMER "Billie Holiday"
INDEX 00 09:06:50
FILE "19 - You've Changed.wav" WAVE
INDEX 01 00:00:00
 
Состав
Billie Holiday (vocals, spoken vocals); Elise Bretton, Lois, Miriam Workman (soprano); John Crosby (spoken vocals); Mike Pingatore, Danny Barker , Freddie Green, Lawrence Lucie, Paul Chapman, John Trueheart, Kenny Burrell, Tiny Grimes, Barney Kessel, Barry Galbraith, Bernard Addison, Al Casey , Jimmy McLin, Carl Kress (guitar); Janet Putnam (harp); Leo Kruczek, George Ockner, Charles Jaffe, George Serloff, Morris Lefkowitz (violin); Dave Sawyer (cello); Harry Azen, David L. Newman , Sol Blumenthal (strings); Bill Stegmeyer (clarinet, alto saxophone); Armand Camgros, Hank Ross , Bernard Kaufman, Babe Russin (clarinet, tenor saxophone); Edmond Hall, Jimmy Hamilton, Benny Goodman (clarinet); Danny Bank, Phil Bodner, Romeo Penque (woodwinds); King Guion, Tommy Mace, Dan d'Andrea, Alvy West (saxophone); Lester Boone, Ernie Powell, Jimmy Powell (alto saxophone, tenor saxophone); Jack Cressey, Johnny Hodges, Tab Smith, Hymie Schertzer (alto saxophone); Coleman Hawkins, Stanley Payne, Larry Binyon, Flip Phillips, Kenneth Hollon, Lester Young , Ben Webster (tenor saxophone); Gerry Mulligan, Harry Carney, Stan Webb (baritone saxophone); Chris Griffin , Doc Cheatham, Don Waddilove, Emmett Berry, Frankie Newton, Larry Neill, Joe Guy, Jonah Jones, Monty Kelly , Roy Eldridge, Russ Case, Buck Clayton, Charlie Shavers (trumpet); J.J. Johnson , Skip Layton, Murray McEachern, Tom Mitchell , Urbie Green, Vic Dickenson (trombone); Eddie Heywood, Joe Springer , Buddy Weed, Dave Bowman , Jimmy Sherman, Mal Waldron, Oscar Peterson, Sammy Benskin, Sonny White, Teddy Wilson, Tony Scott (piano); Chico Hamilton, Cozy Cole, Eddie Dougherty, Herbert Cowans, J.C. Heard, Jo Jones , Alvin Stoller, Osie Johnson, Big Sid Catlett, Specs Powell, Johnny Blowers (drums); Phil Kraus (percussion)
 
Charles Mingus
 
Треклист
01. Haitian Fight Song [11:59]
02. Goodbye Pork Pie Hat [05:42]
03. Better Get Hit in Your Soul [07:20]
04. Original Faubus Fables [09:04]
05. Peggy's Blue Skylight [09:42]
06. Eat That Chicken [04:37]
07. Solo Dancer- Stop! Look! and Listen, Sinner Jim Whitney [06:36]
08. Mood Indigo [04:43]
09. The Shoes of the Fisherman's Wife Are Some Jive Ass Slippers [09:33]
Лейбл: Columbia/Legacy
Продолжительность: 01:09:37
 
Лог создания рипа
Exact Audio Copy V0.99 prebeta 4 from 23. January 2008
EAC extraction logfile from 26. October 2008, 1:02
Charles Mingus / Ken Burns Jazz: The Definitive Charles Mingus
Used drive : HL-DT-STDVD-RAM GSA-H22L Adapter: 0 ID: 0
Read mode : Secure
Utilize accurate stream : Yes
Defeat audio cache : Yes
Make use of C2 pointers : No
Read offset correction : 102
Overread into Lead-In and Lead-Out : No
Fill up missing offset samples with silence : Yes
Delete leading and trailing silent blocks : No
Null samples used in CRC calculations : Yes
Used interface : Installed external ASPI interface
Gap handling : Appended to previous track
Used output format : User Defined Encoder
Selected bitrate : 320 kBit/s
Quality : High
Add ID3 tag : No
Command line compressor : C:\Program Files\Exact Audio Copy\flac.exe
Additional command line options : -V -8 -T "artist=%a" -T "title=%t" -T "album=%g" -T "date=%y" -T "tracknumber=%n" -T "genre=%m" %s
TOC of the extracted CD
Track | Start | Length | Start sector | End sector
---------------------------------------------------------
1 | 0:00.00 | 12:00.62 | 0 | 54061
2 | 12:00.62 | 5:44.70 | 54062 | 79931
3 | 17:45.57 | 7:23.05 | 79932 | 113161
4 | 25:08.62 | 9:06.63 | 113162 | 154174
5 | 34:15.50 | 9:45.10 | 154175 | 198059
6 | 44:00.60 | 4:39.32 | 198060 | 219016
7 | 48:40.17 | 6:39.13 | 219017 | 248954
8 | 55:19.30 | 4:44.45 | 248955 | 270299
9 | 60:04.00 | 9:33.00 | 270300 | 313274
Track 1
Filename C:\Torrent Utopia\EAC Rips\Charles Mingus\2000 - Ken Burns Jazz- The Definitive Charles Mingus\01 - Haitian Fight Song.wav
Pre-gap length 0:00:02.00
Peak level 90.2 %
Track quality 100.0 %
Test CRC EB6A3ECF
Copy CRC EB6A3ECF
Accurately ripped (confidence 10) [46DD3DBE]
Copy OK
Track 2
Filename C:\Torrent Utopia\EAC Rips\Charles Mingus\2000 - Ken Burns Jazz- The Definitive Charles Mingus\02 - Goodbye Pork Pie Hat.wav
Pre-gap length 0:00:01.26
Peak level 94.4 %
Track quality 100.0 %
Test CRC 4EDDC0EA
Copy CRC 4EDDC0EA
Accurately ripped (confidence 11) [50C0E584]
Copy OK
Track 3
Filename C:\Torrent Utopia\EAC Rips\Charles Mingus\2000 - Ken Burns Jazz- The Definitive Charles Mingus\03 - Better Get Hit in Your Soul.wav
Pre-gap length 0:00:02.46
Peak level 89.1 %
Track quality 100.0 %
Test CRC 46F983E9
Copy CRC 46F983E9
Accurately ripped (confidence 11) [DA608258]
Copy OK
Track 4
Filename C:\Torrent Utopia\EAC Rips\Charles Mingus\2000 - Ken Burns Jazz- The Definitive Charles Mingus\04 - Original Faubus Fables.wav
Pre-gap length 0:00:02.69
Peak level 94.2 %
Track quality 100.0 %
Test CRC A56F5A2F
Copy CRC A56F5A2F
Accurately ripped (confidence 11) [D214731F]
Copy OK
Track 5
Filename C:\Torrent Utopia\EAC Rips\Charles Mingus\2000 - Ken Burns Jazz- The Definitive Charles Mingus\05 - Peggy's Blue Skylight.wav
Pre-gap length 0:00:02.70
Peak level 90.0 %
Track quality 100.0 %
Test CRC 0F042EEB
Copy CRC 0F042EEB
Accurately ripped (confidence 11) [44C4A269]
Copy OK
Track 6
Filename C:\Torrent Utopia\EAC Rips\Charles Mingus\2000 - Ken Burns Jazz- The Definitive Charles Mingus\06 - Eat That Chicken.wav
Pre-gap length 0:00:02.20
Peak level 91.8 %
Track quality 100.0 %
Test CRC 74CAF10B
Copy CRC 74CAF10B
Accurately ripped (confidence 11) [61516417]
Copy OK
Track 7
Filename C:\Torrent Utopia\EAC Rips\Charles Mingus\2000 - Ken Burns Jazz- The Definitive Charles Mingus\07 - Solo Dancer- Stop! Look! and Listen, Sinner Jim Whitney (The Black Saint and the Sinner Lady).wav
Pre-gap length 0:00:02.06
Peak level 76.3 %
Track quality 100.0 %
Test CRC D6BD1407
Copy CRC D6BD1407
Accurately ripped (confidence 11) [820BC5A3]
Copy OK
Track 8
Filename C:\Torrent Utopia\EAC Rips\Charles Mingus\2000 - Ken Burns Jazz- The Definitive Charles Mingus\08 - Mood Indigo.wav
Pre-gap length 0:00:02.40
Peak level 86.5 %
Track quality 99.9 %
Test CRC C6688F09
Copy CRC C6688F09
Accurately ripped (confidence 10) [F78CB41E]
Copy OK
Track 9
Filename C:\Torrent Utopia\EAC Rips\Charles Mingus\2000 - Ken Burns Jazz- The Definitive Charles Mingus\09 - The Shoes of the Fisherman's Wife Are Some Jive Ass Slippers.wav
Pre-gap length 0:00:00.66
Peak level 100.0 %
Track quality 100.0 %
Test CRC C3EC7C1B
Copy CRC C3EC7C1B
Accurately ripped (confidence 10) [FA821B98]
Copy OK
All tracks accurately ripped
No errors occurred
End of status report
 
Содержание индексной карты (.CUE)
REM GENRE Jazz
REM DATE 2000
REM DISCID 65105109
REM COMMENT "ExactAudioCopy v0.99pb4"
PERFORMER "Charles Mingus"
TITLE "Ken Burns Jazz: The Definitive Charles Mingus"
FILE "01 - Haitian Fight Song.wav" WAVE
TRACK 01 AUDIO
TITLE "Haitian Fight Song"
PERFORMER "Charles Mingus"
INDEX 01 00:00:00
TRACK 02 AUDIO
TITLE "Goodbye Pork Pie Hat"
PERFORMER "Charles Mingus"
INDEX 00 11:59:42
FILE "02 - Goodbye Pork Pie Hat.wav" WAVE
INDEX 01 00:00:00
TRACK 03 AUDIO
TITLE "Better Get Hit in Your Soul"
PERFORMER "Charles Mingus"
INDEX 00 05:42:35
FILE "03 - Better Get Hit in Your Soul.wav" WAVE
INDEX 01 00:00:00
TRACK 04 AUDIO
TITLE "Original Faubus Fables"
PERFORMER "Charles Mingus"
INDEX 00 07:20:28
FILE "04 - Original Faubus Fables.wav" WAVE
INDEX 01 00:00:00
TRACK 05 AUDIO
TITLE "Peggy's Blue Skylight"
PERFORMER "Charles Mingus"
INDEX 00 09:04:10
FILE "05 - Peggy's Blue Skylight.wav" WAVE
INDEX 01 00:00:00
TRACK 06 AUDIO
TITLE "Eat That Chicken"
PERFORMER "Charles Mingus"
INDEX 00 09:42:70
FILE "06 - Eat That Chicken.wav" WAVE
INDEX 01 00:00:00
TRACK 07 AUDIO
TITLE "Solo Dancer- Stop! Look! and Listen, Sinner Jim Whitney (The Black Saint and ..."
PERFORMER "Charles Mingus"
INDEX 00 04:37:27
FILE "07 - Solo Dancer- Stop! Look! and Listen, Sinner Jim Whitney (The Black Saint and the Sinner Lady).wav" WAVE
INDEX 01 00:00:00
TRACK 08 AUDIO
TITLE "Mood Indigo"
PERFORMER "Charles Mingus"
INDEX 00 06:36:58
FILE "08 - Mood Indigo.wav" WAVE
INDEX 01 00:00:00
TRACK 09 AUDIO
TITLE "The Shoes of the Fisherman's Wife Are Some Jive Ass Slippers"
PERFORMER "Charles Mingus"
INDEX 00 04:43:70
FILE "09 - The Shoes of the Fisherman's Wife Are Some Jive Ass Slippers.wav" WAVE
INDEX 01 00:00:00
 
Состав
Charles Mingus (vocals, piano, bass); Jerome Richardson (soprano & baritone saxophones); Shafi Hadi, John Handy III (alto & tenor saxophones); Eric Dolphy, Charlie Mariano (alto saxophone); Roland Kirk (tenor saxophone, manzello, flute); Dick Hafer (tenor saxophone, clarinet); Booker Ervin, Bobby Jones (tenor saxophone); Ted Curson, Rolf Ericson, Richard Williams, Lonnie Hillyer, Joe Wilder, Snooky Young (trumpet); Julius Watkins (French horn); Jimmy Knepper, Quentin Jackson (trombone); Don Butterfield (tuba); Charles McCracken (cello); Wade Legge, Horace Parlan, Jaki Byard (piano); Doug Watkins (bass); Dannie Richmond, Walter Perkins (drums)
 
Charlie Parker
 
Треклист
01. Sepian Bounce [03:06]
02. Salt Peanuts [03:12]
03. Hot House [03:09]
04. Ko-Ko [02:52]
05. Anthropology [02:54]
06. Now's the Time [03:14]
07. Ornithology [02:57]
08. Yardbird Suite [02:52]
09. Lover Man [03:17]
10. Relaxin' at Camarillo [02:58]
11. Embraceable You [03:42]
12. Scrapple From the Apple [02:54]
13. Parker's Mood [03:01]
14. Just Friends [03:29]
15. Star Eyes [03:34]
16. Confirmation [02:56]
Лейбл: Verve Records
Продолжительность: 00:51:03
 
Лог создания рипа
Exact Audio Copy V0.99 prebeta 4 from 23. January 2008
EAC extraction logfile from 24. October 2008, 20:22
Charlie Parker / Ken Burns Jazz: Definitive Charlie Parker
Used drive : HL-DT-STDVD-RAM GSA-H22L Adapter: 0 ID: 0
Read mode : Secure
Utilize accurate stream : Yes
Defeat audio cache : Yes
Make use of C2 pointers : No
Read offset correction : 102
Overread into Lead-In and Lead-Out : No
Fill up missing offset samples with silence : Yes
Delete leading and trailing silent blocks : No
Null samples used in CRC calculations : Yes
Used interface : Installed external ASPI interface
Gap handling : Appended to previous track
Used output format : User Defined Encoder
Selected bitrate : 320 kBit/s
Quality : High
Add ID3 tag : No
Command line compressor : C:\Program Files\Exact Audio Copy\flac.exe
Additional command line options : -V -8 -T "artist=%a" -T "title=%t" -T "album=%g" -T "date=%y" -T "tracknumber=%n" -T "genre=%m" %s
TOC of the extracted CD
Track | Start | Length | Start sector | End sector
---------------------------------------------------------
1 | 0:00.00 | 3:09.32 | 0 | 14206
2 | 3:09.32 | 3:15.43 | 14207 | 28874
3 | 6:25.00 | 3:13.00 | 28875 | 43349
4 | 9:38.00 | 2:56.00 | 43350 | 56549
5 | 12:34.00 | 2:56.70 | 56550 | 69819
6 | 15:30.70 | 3:17.65 | 69820 | 84659
7 | 18:48.60 | 3:01.02 | 84660 | 98236
8 | 21:49.62 | 2:55.70 | 98237 | 111431
9 | 24:45.57 | 3:20.35 | 111432 | 126466
10 | 28:06.17 | 3:01.73 | 126467 | 140114
11 | 31:08.15 | 3:46.52 | 140115 | 157116
12 | 34:54.67 | 2:57.25 | 157117 | 170416
13 | 37:52.17 | 3:04.30 | 170417 | 184246
14 | 40:56.47 | 3:32.45 | 184247 | 200191
15 | 44:29.17 | 3:37.20 | 200192 | 216486
16 | 48:06.37 | 2:56.60 | 216487 | 229746
Track 1
Filename C:\Torrent Utopia\EAC Rips\Charlie Parker\2000 - Ken Burns Jazz- Definitive Charlie Parker\01 - Sepian Bounce.wav
Pre-gap length 0:00:02.00
Peak level 99.6 %
Track quality 100.0 %
Test CRC F047330B
Copy CRC F047330B
Accurately ripped (confidence 19) [0878059B]
Copy OK
Track 2
Filename C:\Torrent Utopia\EAC Rips\Charlie Parker\2000 - Ken Burns Jazz- Definitive Charlie Parker\02 - Salt Peanuts.wav
Pre-gap length 0:00:02.56
Peak level 86.8 %
Track quality 99.9 %
Test CRC 5A6279A2
Copy CRC 5A6279A2
Accurately ripped (confidence 19) [6D7326EE]
Copy OK
Track 3
Filename C:\Torrent Utopia\EAC Rips\Charlie Parker\2000 - Ken Burns Jazz- Definitive Charlie Parker\03 - Hot House.wav
Pre-gap length 0:00:03.13
Peak level 100.0 %
Track quality 100.0 %
Test CRC 97E1D424
Copy CRC 97E1D424
Accurately ripped (confidence 19) [F56D81F7]
Copy OK
Track 4
Filename C:\Torrent Utopia\EAC Rips\Charlie Parker\2000 - Ken Burns Jazz- Definitive Charlie Parker\04 - Ko-Ko.wav
Pre-gap length 0:00:03.93
Peak level 100.0 %
Track quality 99.9 %
Test CRC 363A90EA
Copy CRC 363A90EA
Accurately ripped (confidence 19) [20F354CD]
Copy OK
Track 5
Filename C:\Torrent Utopia\EAC Rips\Charlie Parker\2000 - Ken Burns Jazz- Definitive Charlie Parker\05 - Anthropology.wav
Pre-gap length 0:00:03.06
Peak level 98.9 %
Track quality 100.0 %
Test CRC E95F8DE4
Copy CRC E95F8DE4
Accurately ripped (confidence 19) [995BC400]
Copy OK
Track 6
Filename C:\Torrent Utopia\EAC Rips\Charlie Parker\2000 - Ken Burns Jazz- Definitive Charlie Parker\06 - Now's the Time.wav
Pre-gap length 0:00:02.70
Peak level 93.4 %
Track quality 100.0 %
Test CRC 67C50ADF
Copy CRC 67C50ADF
Accurately ripped (confidence 19) [4F2EF3BE]
Copy OK
Track 7
Filename C:\Torrent Utopia\EAC Rips\Charlie Parker\2000 - Ken Burns Jazz- Definitive Charlie Parker\07 - Ornithology.wav
Pre-gap length 0:00:03.37
Peak level 99.6 %
Track quality 100.0 %
Test CRC D4ADDF63
Copy CRC D4ADDF63
Accurately ripped (confidence 19) [AA818B21]
Copy OK
Track 8
Filename C:\Torrent Utopia\EAC Rips\Charlie Parker\2000 - Ken Burns Jazz- Definitive Charlie Parker\08 - Yardbird Suite.wav
Pre-gap length 0:00:03.73
Peak level 91.6 %
Track quality 100.0 %
Test CRC 423BAA81
Copy CRC 423BAA81
Accurately ripped (confidence 19) [4CB38D9C]
Copy OK
Track 9
Filename C:\Torrent Utopia\EAC Rips\Charlie Parker\2000 - Ken Burns Jazz- Definitive Charlie Parker\09 - Lover Man.wav
Pre-gap length 0:00:03.26
Peak level 100.0 %
Track quality 100.0 %
Test CRC C9D1F0DA
Copy CRC C9D1F0DA
Accurately ripped (confidence 19) [DB3252B8]
Copy OK
Track 10
Filename C:\Torrent Utopia\EAC Rips\Charlie Parker\2000 - Ken Burns Jazz- Definitive Charlie Parker\10 - Relaxin' at Camarillo.wav
Pre-gap length 0:00:03.40
Peak level 93.3 %
Track quality 99.9 %
Test CRC 90E023B1
Copy CRC 90E023B1
Accurately ripped (confidence 19) [33D59A43]
Copy OK
Track 11
Filename C:\Torrent Utopia\EAC Rips\Charlie Parker\2000 - Ken Burns Jazz- Definitive Charlie Parker\11 - Embraceable You.wav
Pre-gap length 0:00:03.37
Peak level 99.6 %
Track quality 100.0 %
Test CRC B2BE21AB
Copy CRC B2BE21AB
Accurately ripped (confidence 19) [DA2BA3C8]
Copy OK
Track 12
Filename C:\Torrent Utopia\EAC Rips\Charlie Parker\2000 - Ken Burns Jazz- Definitive Charlie Parker\12 - Scrapple From the Apple.wav
Pre-gap length 0:00:03.73
Peak level 100.0 %
Track quality 99.9 %
Test CRC C2247F06
Copy CRC C2247F06
Accurately ripped (confidence 19) [94819037]
Copy OK
Track 13
Filename C:\Torrent Utopia\EAC Rips\Charlie Parker\2000 - Ken Burns Jazz- Definitive Charlie Parker\13 - Parker's Mood.wav
Pre-gap length 0:00:03.13
Peak level 87.0 %
Track quality 100.0 %
Test CRC B4DF790E
Copy CRC B4DF790E
Accurately ripped (confidence 19) [88168324]
Copy OK
Track 14
Filename C:\Torrent Utopia\EAC Rips\Charlie Parker\2000 - Ken Burns Jazz- Definitive Charlie Parker\14 - Just Friends.wav
Pre-gap length 0:00:03.06
Peak level 100.0 %
Track quality 100.0 %
Test CRC D0F733DF
Copy CRC D0F733DF
Accurately ripped (confidence 19) [8792A477]
Copy OK
Track 15
Filename C:\Torrent Utopia\EAC Rips\Charlie Parker\2000 - Ken Burns Jazz- Definitive Charlie Parker\15 - Star Eyes.wav
Pre-gap length 0:00:02.93
Peak level 99.6 %
Track quality 100.0 %
Test CRC D6BCA200
Copy CRC D6BCA200
Accurately ripped (confidence 18) [26EB03A2]
Copy OK
Track 16
Filename C:\Torrent Utopia\EAC Rips\Charlie Parker\2000 - Ken Burns Jazz- Definitive Charlie Parker\16 - Confirmation.wav
Pre-gap length 0:00:02.96
Peak level 93.4 %
Track quality 100.0 %
Test CRC 01629158
Copy CRC 01629158
Accurately ripped (confidence 17) [BCEAD1EC]
Copy OK
All tracks accurately ripped
No errors occurred
End of status report
 
Содержание индексной карты (.CUE)
REM GENRE Jazz
REM DATE 2000
REM DISCID EF0BF710
REM COMMENT "ExactAudioCopy v0.99pb4"
PERFORMER "Charlie Parker"
TITLE "Ken Burns Jazz: Definitive Charlie Parker"
FILE "01 - Sepian Bounce.wav" WAVE
TRACK 01 AUDIO
TITLE "Sepian Bounce"
PERFORMER "Charlie Parker"
INDEX 01 00:00:00
TRACK 02 AUDIO
TITLE "Salt Peanuts"
PERFORMER "Charlie Parker"
INDEX 00 03:06:65
FILE "02 - Salt Peanuts.wav" WAVE
INDEX 01 00:00:00
TRACK 03 AUDIO
TITLE "Hot House"
PERFORMER "Charlie Parker"
INDEX 00 03:12:33
FILE "03 - Hot House.wav" WAVE
INDEX 01 00:00:00
TRACK 04 AUDIO
TITLE "Ko-Ko"
PERFORMER "Charlie Parker"
INDEX 00 03:09:05
FILE "04 - Ko-Ko.wav" WAVE
INDEX 01 00:00:00
TRACK 05 AUDIO
TITLE "Anthropology"
PERFORMER "Charlie Parker"
INDEX 00 02:52:70
FILE "05 - Anthropology.wav" WAVE
INDEX 01 00:00:00
TRACK 06 AUDIO
TITLE "Now's the Time"
PERFORMER "Charlie Parker"
INDEX 00 02:54:17
FILE "06 - Now's the Time.wav" WAVE
INDEX 01 00:00:00
TRACK 07 AUDIO
TITLE "Ornithology"
PERFORMER "Charlie Parker"
INDEX 00 03:14:37
FILE "07 - Ornithology.wav" WAVE
INDEX 01 00:00:00
TRACK 08 AUDIO
TITLE "Yardbird Suite"
PERFORMER "Charlie Parker"
INDEX 00 02:57:22
FILE "08 - Yardbird Suite.wav" WAVE
INDEX 01 00:00:00
TRACK 09 AUDIO
TITLE "Lover Man"
PERFORMER "Charlie Parker"
INDEX 00 02:52:50
FILE "09 - Lover Man.wav" WAVE
INDEX 01 00:00:00
TRACK 10 AUDIO
TITLE "Relaxin' at Camarillo"
PERFORMER "Charlie Parker"
INDEX 00 03:17:05
FILE "10 - Relaxin' at Camarillo.wav" WAVE
INDEX 01 00:00:00
TRACK 11 AUDIO
TITLE "Embraceable You"
PERFORMER "Charlie Parker"
INDEX 00 02:58:45
FILE "11 - Embraceable You.wav" WAVE
INDEX 01 00:00:00
TRACK 12 AUDIO
TITLE "Scrapple From the Apple"
PERFORMER "Charlie Parker"
INDEX 00 03:42:72
FILE "12 - Scrapple From the Apple.wav" WAVE
INDEX 01 00:00:00
TRACK 13 AUDIO
TITLE "Parker's Mood"
PERFORMER "Charlie Parker"
INDEX 00 02:54:15
FILE "13 - Parker's Mood.wav" WAVE
INDEX 01 00:00:00
TRACK 14 AUDIO
TITLE "Just Friends"
PERFORMER "Charlie Parker"
INDEX 00 03:01:25
FILE "14 - Just Friends.wav" WAVE
INDEX 01 00:00:00
TRACK 15 AUDIO
TITLE "Star Eyes"
PERFORMER "Charlie Parker"
INDEX 00 03:29:50
FILE "15 - Star Eyes.wav" WAVE
INDEX 01 00:00:00
TRACK 16 AUDIO
TITLE "Confirmation"
PERFORMER "Charlie Parker"
INDEX 00 03:34:23
FILE "16 - Confirmation.wav" WAVE
INDEX 01 00:00:00
 
Состав
Charlie Parker (alto saxophone); Dizzy Gillespie (vocals, trumpet, piano); John Jackson (alto saxophone); Fred Culliver, Bob Mabane, Lucky Thompson, Wardell Gray (tenor saxophone); Buddy Anderson, Bob Merrill, Orville Minor, Miles Davis, Howard McGhee (trumpet); Lawrence Anderson, Taswell Baird (trombone); Mitch Miller (oboe); Jay McShann, Al Haig, Sadik Hakim, Dodo Marmarosa, Jimmy Bunn, Duke Jordan, John Lewis, Walter Bishop Jr. (piano); Lucky Enois, Alvin Garrison, Barney Kessel (guitar); Gene Ramey, Curley Russell, Victor McMillan, Bob Kesterson, Red Callender, Tommy Potter, Ray Brown, Percy Heath (bass); Doc West, Sid Catlett, Max Roach, Roy Porter, Don Lamond, Buddy Rich (drums)
 
Coleman Hawkins
 
Треклист
01. The Stampede [03:13]
02. If I Could Be With You One Hour Tonight [03:26]
03. Queer Notions [02:48]
04. It's the Talk of the Town [03:30]
05. Honeysuckle Rose [02:43]
06. Body and Soul [03:00]
07. The Man I Love [05:07]
08. Bean at the Met [03:01]
09. Woody 'n' You [02:57]
10. I Mean You [03:01]
11. Bean and the Boys [02:41]
12. Stuffy [03:01]
13. Picasso [03:14]
14. La Rosita [05:02]
15. Ruby, My Dear [05:24]
16. Just Friends [04:39]
17. Crazy Rhythm [03:23]
18. Driva Man [05:12]
19. Self Portrait (of the Bean) [03:49]
Лейбл: Verve Records
Продолжительность: 01:10:15
 
Лог создания рипа
Exact Audio Copy V0.99 prebeta 4 from 23. January 2008
EAC extraction logfile from 23. October 2008, 17:00
Coleman Hawkins / Ken Burns Jazz: The Definitive Coleman Hawkins
Used drive : HL-DT-STDVD-RAM GSA-H22L Adapter: 0 ID: 0
Read mode : Secure
Utilize accurate stream : Yes
Defeat audio cache : Yes
Ma
По всем вопросам пишите личное сообщение пользователю M0p94ok.
00:09
349
Нет комментариев. Ваш будет первым!