Поиск

(Hard Bop) Bobby Timmons - The Prestige Trio Sessions - 1964, FLAC (tracks+.cue), lossless

Треклист:
Bobby Timmons - The Prestige Trio Sessions
Жанр: Jazz
Год выпуска диска: 1964
Производитель диска: USA
Аудио кодек: FLAC
Тип рипа: tracks+.cue
Продолжительность: 01:10:14
Трэклист:
1. A Little Barefoot Soul 5’03
2. Walkin'-Wadin'-Sittin'-Ridin' 7’45
3. Little One 3’52
4. Cut Me Loose, Charlie 4’45
5. Ain't Thinkin' 'Bout It 8’49
6. Nobody Knows The Trouble I've Seen 2’20
7. Chun-King 6’30
8. Walking Death 6’05
9. O Grande Amor 6’52
10. Gettin' It Togetha' 6’45
11. I Could Have Danced All Night 6’21
12. Someone To Watch Over Me 4’15
Доп. информация: Tracks 1–6: Bobby Timmons – piano, Sam Jones – bass, Ray Lucas – drums.
Recorded At Van Gelder’s Studio in New Jersey, June 18, 1964
Tracks 7–12: Bobby Timmons – piano, Keter Betts – bass, Albert "Tootie" Heath – drums
Recorded At Van Gelder’s Studio in New Jersey, August 12, 1964
Rip не мой, взят из сети, вердикт AUDIOCHECKER v2.0 beta (build 457): CDDA с вероятностью 100%
 
Отчёт EAC
Exact Audio Copy V0.99 prebeta 3 from 28. July 2007
Отчёт EAC об извлечении, выполненном 25. августа 2008, 12:54
Bobby Timmons (1935-1974) / Prestige Trio Sessions 1964
Дисковод: _NEC DVD_RW ND-3540A Adapter: 2 ID: 0
Режим чтения : Достоверность
Использование точного потока : Да
Отключение кэша аудио : Да
Использование указателей C2 : Нет
Коррекция смещения при чтении : 48
Способность читать области Lead-in и Lead-out : Нет
Заполнение пропущенных сэмплов тишиной : Да
Удаление блоков с тишиной в начале и конце : Нет
При вычислениях CRC использовались нулевые сэмплы : Да
Интерфейс : Установленный внешний ASPI-интерфейс
Выходной формат : Пользовательский кодировщик
Выбранный битрейт : 768 kBit/s
Качество : Высокий
Добавление ID3-тэга : Да
Утилита сжатия : C:\Program Files\Exact Audio Copy\FLAC\FLAC.EXE
Дополнительные параметры : -6 -V -T "ARTIST=%a" -T "TITLE=%t" -T "ALBUM=%g" -T "DATE=%y" -T "TRACKNUMBER=%n" -T "GENRE=%m" -T "COMMENT=%e" %s -o %d
TOC извлечённого CD
Трек | Старт | Длительность | Начальный сектор | Конечный сектор
---------------------------------------------------------------------
1 | 0:00.00 | 5:06.73 | 0 | 23022
2 | 5:06.73 | 7:55.05 | 23023 | 58652
3 | 13:02.03 | 3:55.67 | 58653 | 76344
4 | 16:57.70 | 4:49.53 | 76345 | 98072
5 | 21:47.48 | 8:53.17 | 98073 | 138064
6 | 30:40.65 | 2:28.38 | 138065 | 149202
7 | 33:09.28 | 6:36.47 | 149203 | 178949
8 | 39:46.00 | 6:07.45 | 178950 | 206519
9 | 45:53.45 | 6:55.63 | 206520 | 237707
10 | 52:49.33 | 6:50.02 | 237708 | 268459
11 | 59:39.35 | 6:24.45 | 268460 | 297304
12 | 66:04.05 | 4:17.53 | 297305 | 316632
Характеристики диапазона извлечения и сообщения об ошибках
Выбранный диапазон
Имя файла C:\Documents and Settings\Миша\Мои документы\Bobby Timmons - Prestige Trio Sessions\Bobby Timmons (1935-1974) - Prestige Trio Sessions 1964.wav
Пиковый уровень 100.0 %
Качество диапазона 100.0 %
CRC копии B855CE21
Копирование... OK
Ошибок не произошло
AccurateRip: сводка
Трек 1 нет в базе данных
Трек 2 нет в базе данных
Трек 3 нет в базе данных
Трек 4 нет в базе данных
Трек 5 нет в базе данных
Трек 6 нет в базе данных
Трек 7 нет в базе данных
Трек 8 нет в базе данных
Трек 9 нет в базе данных
Трек 10 нет в базе данных
Трек 11 нет в базе данных
Трек 12 нет в базе данных
Ни одного трека нет в базе AccurateRip
Конец отчёта
 
 
Audiochecker
AUDIOCHECKER v2.0 beta (build 457) - by Dester - opdester@freemail.hu
~~~~~~~~~~~~~~~~~~~~~~~~~~~~~~~~~~
-=== НЕ РЕДАКТИРУЙТЕ ЭТОТ ФАЙЛ! ===-
Путь: ...\Bobby Timmons - Prestige Trio Sessions
1 -=- Bobby Timmons (1935-1974) - Prestige Trio Sessions 1964.flac -=- CDDA (100%)
120110820
По всем вопросам пишите личное сообщение пользователю M0p94ok.
07:44
332
Нет комментариев. Ваш будет первым!