Поиск

(Guitar/Brazilian Jazz) Baden Powell - Lembrancas - 2000, FLAC (tracks + cue), lossless

Треклист:
Baden Powell - Lembrancas
Жанр: Guitar/Brazilian Jazz
Год выпуска диска: 2000
Производитель диска: Brasil
Аудио кодек: FLAC
Тип рипа: tracks + cue
Битрейт аудио: lossless
Продолжительность: 60:58
Трэклист:
01. Pastorinhas 6:11
02. Inquietação 6:49
03. Molambo 3:40
04. Falei e Disse 6:04
05. Dora 8:24
06. Linda Flor (Ai, Ioiô) 4:40
07. Maria 8:37
08. Minha Palhoça 3:12
09. Branca 4:28
10. Mágoas de Caboclo 5:06
11. O Astronauta 3:43
Музыканты:
Baden Powell: acoustic guitar, vocals
Teco Cardoso: flute
Fred Prince: percussion
Доп. информация: Первый столб!
EAC log:
 
скрытый текст
EAC extraction logfile from 18. March 2006, 21:54 for CD
Baden Powell / Lembrancas
 
скрытый текст
Used drive : SONY CD-RW CRX230E Adapter: 1 ID: 0
Read mode : Secure with NO C2, accurate stream, disable cache
Read offset correction : 6
Overread into Lead-In and Lead-Out : No
Used output format : C:\Arquivos de programas\FLAC\flac.exe (User Defined Encoder)
320 kBit/s
Additional command line options : -V -6 -T "artist=%a" -T "title=%t" -T "album=%g" -T "tracknumber=%n" %s
Other options :
Fill up missing offset samples with silence : Yes
Delete leading and trailing silent blocks : No
Installed external ASPI interface
Track 1
Filename C:\01 - Pastorinhas.wav
Pre-gap length 0:00:02.00
Peak level 100.0 %
Track quality 100.0 %
Test CRC 1360AC6E
Copy CRC 1360AC6E
Copy OK
Track 2
Filename C:\02 - Inquietacao.wav
Pre-gap length 0:00:02.06
Peak level 100.0 %
Track quality 100.0 %
Test CRC 3CDE4C97
Copy CRC 3CDE4C97
Copy OK
Track 3
Filename C:\03 - Molambo.wav
Pre-gap length 0:00:01.46
Peak level 100.0 %
Track quality 100.0 %
Test CRC 4B10CE36
Copy CRC 4B10CE36
Copy OK
Track 4
Filename C:\04 - Falei e Disse.wav
Pre-gap length 0:00:01.57
Peak level 100.0 %
Track quality 100.0 %
Test CRC 37A82BBB
Copy CRC 37A82BBB
Copy OK
Track 5
Filename C:\05 - Dora.wav
Pre-gap length 0:00:01.56
Peak level 100.0 %
Track quality 100.0 %
Test CRC 105ED89B
Copy CRC 105ED89B
Copy OK
Track 6
Filename C:\06 - Linda Flor (Ai, Ioio).wav
Peak level 100.0 %
Track quality 100.0 %
Test CRC 4A3DE834
Copy CRC 4A3DE834
Copy OK
Track 7
Filename C:\07 - Maria.wav
Pre-gap length 0:00:01.56
Peak level 100.0 %
Track quality 100.0 %
Test CRC B6BEA5EC
Copy CRC B6BEA5EC
Copy OK
Track 8
Filename C:\08 - Minha Palhoca.wav
Pre-gap length 0:00:02.56
Peak level 100.0 %
Track quality 100.0 %
Test CRC 5F8F969D
Copy CRC 5F8F969D
Copy OK
Track 9
Filename C:\09 - Branca.wav
Pre-gap length 0:00:02.57
Peak level 100.0 %
Track quality 100.0 %
Test CRC 089875D6
Copy CRC 089875D6
Copy OK
Track 10
Filename C:\10 - Magoas de Caboclo.wav
Pre-gap length 0:00:02.57
Peak level 100.0 %
Track quality 100.0 %
Test CRC E73E7F9D
Copy CRC E73E7F9D
Copy OK
Track 11
Filename C:\11 - O Astronauta.wav
Pre-gap length 0:00:01.57
Peak level 100.0 %
Track quality 100.0 %
Test CRC 6D659104
Copy CRC 6D659104
Copy OK
No errors occured
End of status report
Информация
05:00
401
Нет комментариев. Ваш будет первым!