Поиск

(Guitar/Brazilian Jazz) Baden Powell & Trio - The Frankfurt Opera Concert - 1975, FLAC (image+.cue), lossless

(Guitar/Brazilian Jazz) Baden Powell & Trio - The Frankfurt Opera Concert - 1975, FLAC (image+.cue), lossless
Треклист:
Baden Powell & Trio (The Frankfurt Opera Concert)
Жанр: Guitar/Brazilian Jazz
Год выпуска диска: 1975
Производитель диска: Germany
Аудио кодек: FLAC
Тип рипа: image+.cue
Битрейт аудио: lossless
Продолжительность: 1'15'06
Трэклист:
01 Valsa da Euridice
02 Preludio in E Minor
03 Asa Branca
04 A Lenda do Abaete
05 Se Todos Fossem Iguais ao Voce
06 Samba Triste
07 Petite Valse
08 Imagens
09 Pescador
10 Valse No. 1
11 Berceuse
12 Variacao sobre Canto de Ossanha
13 Coisa No. 1
14 Marcha Escocesa
Baden Powell - guitar
Guy Pedersen - bass
Coaty de Oliveira - drums & percussion
Jorge Arena - percussion
Доп. информация:
 
Отчёт EAC
Exact Audio Copy V0.99 prebeta 5 from 4. May 2009
Отчёт EAC об извлечении, выполненном 1. октября 2009, 0:35
Baden Powell / Baden Powell & Trio (The Frankfurt Opera Concert)
Дисковод: ASUS DRW-1608P3S Adapter: 0 ID: 0
Режим чтения : Достоверность
Использование точного потока : Да
Отключение кэша аудио : Да
Использование указателей C2 : Нет
Коррекция смещения при чтении : 48
Способность читать области Lead-in и Lead-out : Нет
Заполнение пропущенных сэмплов тишиной : Да
Удаление блоков с тишиной в начале и конце : Нет
При вычислениях CRC использовались нулевые сэмплы : Да
Интерфейс : Встроенный Win32-интерфейс для Win NT/2000
Выходной формат : Пользовательский кодировщик
Выбранный битрейт : 768 kBit/s
Качество : Высокий
Добавление ID3-тэга : Нет
Утилита сжатия : C:\Program Files\Exact Audio Copy\FLAC\FLAC.EXE
Дополнительные параметры : -6 -V -T "ARTIST=%a" -T "TITLE=%t" -T "ALBUM=%g" -T "DATE=%y" -T "TRACKNUMBER=%n" -T "GENRE=%m" -T "COMMENT=%e" %s -o %d
TOC извлечённого CD
Трек | Старт | Длительность | Начальный сектор | Конечный сектор
---------------------------------------------------------------------
1 | 0:00.33 | 4:19.02 | 33 | 19459
2 | 4:19.35 | 5:36.73 | 19460 | 44732
3 | 9:56.33 | 6:35.65 | 44733 | 74422
4 | 16:32.23 | 4:32.25 | 74423 | 94847
5 | 21:04.48 | 3:30.12 | 94848 | 110609
6 | 24:34.60 | 6:38.63 | 110610 | 140522
7 | 31:13.48 | 3:02.35 | 140523 | 154207
8 | 34:16.08 | 9:18.72 | 154208 | 196129
9 | 43:35.05 | 9:21.48 | 196130 | 238252
10 | 52:56.53 | 3:27.10 | 238253 | 253787
11 | 56:23.63 | 3:51.37 | 253788 | 271149
12 | 60:15.25 | 8:02.25 | 271150 | 307324
13 | 68:17.50 | 3:54.28 | 307325 | 324902
14 | 72:12.03 | 2:55.30 | 324903 | 338057
Характеристики диапазона извлечения и сообщения об ошибках
Выбранный диапазон
Имя файла D:\Torrent на раздачу\Baden Powell\Baden Powell - Baden Powell & Trio (The Frankfurt Opera Concert).wav
Пиковый уровень 95.0 %
Качество диапазона 99.9 %
CRC копии 0BD19B22
Копирование... OK
Ошибок не произошло
AccurateRip: сводка
Трек 1 точное извлечение (доверие 1) [CD4AE9F0]
Трек 2 точность не определена (достоверность 1) [5AEA96A0], AccurateRip вернул [B5F2E156]
Трек 3 точное извлечение (доверие 1) [B547385A]
Трек 4 точное извлечение (доверие 1) [72CCAAC9]
Трек 5 точное извлечение (доверие 1) [B9F7A600]
Трек 6 точное извлечение (доверие 1) [E8C80B53]
Трек 7 точное извлечение (доверие 1) [37FD6ADC]
Трек 8 точное извлечение (доверие 1) [7E27164F]
Трек 9 точное извлечение (доверие 1) [2F244E9E]
Трек 10 точное извлечение (доверие 1) [ECC6BA2D]
Трек 11 точное извлечение (доверие 1) [4E120806]
Трек 12 точное извлечение (доверие 1) [7E3AEE9D]
Трек 13 точное извлечение (доверие 1) [6D9CAE32]
Трек 14 точное извлечение (доверие 1) [04BE1FF9]
13 трек(и) скопированы точно
1 трек(и) не удалось проверить на точность
Некоторые треки не прошли проверку на точность
Конец отчёта
По всем вопросам пишите личное сообщение пользователю M0p94ok.
09:14
303
Нет комментариев. Ваш будет первым!