Поиск

(Guitar Jazz) Brad Shepik Trio - Short Trip - 2001, APE (image + .cue), lossless

Треклист:
Brad Shepik Trio - Short Trip
Страна: USA
Жанр: Guitar Jazz
Год выпуска: 2001
Формат: APE (image + .cue)
Битрейт аудио: lossless
Продолжительность: 50:18
Трэклист:
1. Brad Shepik Trio - Lupe (5:40)
2. Brad Shepik Trio - Non, Si Si (7:34)
3. Brad Shepik Trio - Tuck On In (5:51)
4. Brad Shepik Trio - Short Trip Back (7:30)
5. Brad Shepik Trio - The Tiger (6:37)
6. Brad Shepik Trio - Pilgrimage (5:09)
7. Brad Shepik Trio - Toni Tune (2:57)
8. Brad Shepik Trio - Squall (4:21)
9. Brad Shepik Trio - Karedok Luenca (4:39)
Brad Shepik:guitar
Scott Colley:bass
Tom Rainey:drums
c+p KNITTING FACTORY RECORDS, NEW YORK, 2001
 
EAC-Log
Exact Audio Copy V0.99 prebeta 4 from 23. January 2008
Отчёт EAC об извлечении, выполненном 6. марта 2008, 21:14
Brad Shepik Trio / Short Trip
Дисковод: _NEC DVD_RW ND-4550A Adapter: 0 ID: 1
Режим чтения : Достоверность
Использование точного потока : Да
Отключение кэша аудио : Да
Использование указателей C2 : Нет
Коррекция смещения при чтении : 48
Способность читать области Lead-in и Lead-out : Нет
Заполнение пропущенных сэмплов тишиной : Да
Удаление блоков с тишиной в начале и конце : Нет
При вычислениях CRC использовались нулевые сэмплы : Да
Интерфейс : Установленный внешний ASPI-интерфейс
Выходной формат : Внутренние WAV-операции
Формат сэмплов : 44.100 Гц; 16 бит; стерео
TOC извлечённого CD
Трек | Старт | Длительность | Начальный сектор | Конечный сектор
---------------------------------------------------------------------
1 | 0:00.00 | 5:40.60 | 0 | 25559
2 | 5:40.60 | 7:34.55 | 25560 | 59664
3 | 13:15.40 | 5:51.20 | 59665 | 86009
4 | 19:06.60 | 7:30.47 | 86010 | 119806
5 | 26:37.32 | 6:37.45 | 119807 | 149626
6 | 33:15.02 | 5:09.00 | 149627 | 172801
7 | 38:24.02 | 2:57.65 | 172802 | 186141
8 | 41:21.67 | 4:21.73 | 186142 | 205789
9 | 45:43.65 | 4:39.40 | 205790 | 226754
Характеристики диапазона извлечения и сообщения об ошибках
Выбранный диапазон
Имя файла G:\Torrents\Brad Shepik Trio\Brad Shepik Trio - Short Trip.wav
Пиковый уровень 100.0 %
Качество диапазона 100.0 %
CRC копии 320C9F82
Копирование... OK
Ошибок не произошло
AccurateRip: сводка
Трек 1 точное извлечение (доверие 1) [D9A24059]
Трек 2 точное извлечение (доверие 1) [F21715CE]
Трек 3 точное извлечение (доверие 1) [BFFD719A]
Трек 4 точное извлечение (доверие 1) [E3AFF648]
Трек 5 точное извлечение (доверие 1) [68610AC3]
Трек 6 точное извлечение (доверие 1) [2398B413]
Трек 7 точное извлечение (доверие 1) [156291B7]
Трек 8 точное извлечение (доверие 1) [827E5730]
Трек 9 точность не определена (достоверность 1) [E2E85630], AccurateRip вернул [358FE1E0]
8 трек(и) скопированы точно
1 трек(и) не удалось проверить на точность
Некоторые треки не прошли проверку на точность
Конец отчёта
Рип с оригинального диска, внутри раздачи - все сканы 300 dpi
Приватный:
Нет (DHT включён)
Размер:
265.78 Мб (278,693,509 байт) » файлов: 8
Участники:
0 раздают, 0 качают (0 участников всего)
Внешние участники:
2 раздают, 1 качают (3 участников всего) [ Обновить ]
Есть вопросы - пишите личное сообщение пользователю M0p94ok.
23:53
88
Нет комментариев. Ваш будет первым!