Поиск

(fusion/latin jazz) Gato Barbieri:Chapter one-Latin America(1973)/Ruby,Ruby(1977)/Gato...para los amigos(1981) , FLAC (image+.cue), lossless

Треклист:
Gato Barbieri:Chapter one-Latin America(1973)/Ruby,Ruby(1977)/Gato...para los amigos(Live)(1981)
Жанр: fusion
Производитель диска и год выпуска диска:
1973 - MCAD-39124 impulse! - USA (MFD BY JVC) - 198?
1977 - CD 3322-2 A & M Records - USA - 1989
1981 - AGK 39204 Signature/CBS Special Products - USA - 1989
Аудио кодек: FLAC
Тип рипа: image+.cue
Битрейт аудио: lossless
Продолжительность:
1973 - 00:42:58
1977 - 00:43:48
1981 - 01:16:36
.
.
.
.
.
.

Трэклист и прочее :
 
Gato Barbieri - Chapter 1: Latin America (1973)

Трэклист:
01. Encuentros (12:30)
02. India (8:59)
03. La China Leoncia Arreo (2:30)
04. La Correntinada Trajo (2:47)
05. Entre La Muchachada (4:25)
06. La Flor De La Juventud (3:53)
07. Nunca Mas (5:26)
08. To Be Continued (2:30)
 
Лог EAC
Exact Audio Copy V0.99 prebeta 5 from 4. May 2009
Отчёт EAC об извлечении, выполненном 6. апреля 2010, 13:19
Gato Barbieri / Chapter 1: Latin America
Дисковод: SONY DVD RW DRX-S70U Adapter: 2 ID: 0
Режим чтения : Достоверность
Использование точного потока : Да
Отключение кэша аудио : Да
Использование указателей C2 : Нет
Коррекция смещения при чтении : 48
Способность читать области Lead-in и Lead-out : Нет
Заполнение пропущенных сэмплов тишиной : Да
Удаление блоков с тишиной в начале и конце : Нет
При вычислениях CRC использовались нулевые сэмплы : Да
Интерфейс : Встроенный Win32-интерфейс для Win NT/2000
Выходной формат : Пользовательский кодировщик
Выбранный битрейт : 768 kBit/s
Качество : Высокий
Добавление ID3-тэга : Нет
Утилита сжатия : C:\Program Files\Exact Audio Copy\FLAC\FLAC.EXE
Дополнительные параметры : -6 -V -T "ARTIST=%a" -T "TITLE=%t" -T "ALBUM=%g" -T "DATE=%y" -T "TRACKNUMBER=%n" -T "GENRE=%m" -T "COMMENT=%e" %s -o %d
TOC извлечённого CD
Трек | Старт | Длительность | Начальный сектор | Конечный сектор
---------------------------------------------------------------------
1 | 0:00.37 | 12:29.38 | 37 | 56249
2 | 12:30.00 | 8:59.00 | 56250 | 96674
3 | 21:29.00 | 2:29.50 | 96675 | 107899
4 | 23:58.50 | 2:47.00 | 107900 | 120424
5 | 26:45.50 | 4:24.55 | 120425 | 140279
6 | 31:10.30 | 3:52.57 | 140280 | 157736
7 | 35:03.12 | 5:25.48 | 157737 | 182159
8 | 40:28.60 | 2:29.50 | 182160 | 193384
Характеристики диапазона извлечения и сообщения об ошибках
Выбранный диапазон
Имя файла d:\My Documents\Gato Barbieri 1973\Gato Barbieri - Chapter 1 Latin America.wav
Пиковый уровень 91.0 %
Качество диапазона 99.9 %
CRC теста EDDD48CA
CRC копии EDDD48CA
Копирование... OK
Ошибок не произошло
AccurateRip: сводка
Трек 1 точность не определена (достоверность 1) [FD71B8F5], AccurateRip вернул [2B25174E]
Трек 2 точность не определена (достоверность 1) [BE1D677E], AccurateRip вернул [359FD159]
Трек 3 точность не определена (достоверность 1) [B7EE2B3C], AccurateRip вернул [9DDD0F9B]
Трек 4 точность не определена (достоверность 1) [0AB28A1B], AccurateRip вернул [3B0717F3]
Трек 5 точность не определена (достоверность 1) [48B694CC], AccurateRip вернул [658D29B0]
Трек 6 точность не определена (достоверность 1) [29867EA7], AccurateRip вернул [0BFF4631]
Трек 7 точность не определена (достоверность 1) [2B50E7F0], AccurateRip вернул [B8773F4B]
Трек 8 точность не определена (достоверность 1) [F98091C7], AccurateRip вернул [081200FE]
Ни один трек не прошёл проверки на точность
В вашей базе может быть иной вариант штамповки диска
Конец отчёта
 
Лог Audiochecker
AUDIOCHECKER v2.0 beta (build 457) - by Dester - opdester@freemail.hu
~~~~~~~~~~~~~~~~~~~~~~~~~~~~~~~~~~
-=== DO NOT EDIT THIS FILE! ===-
Путь: ...\Gato Barbieri 1973
1 -=- Gato Barbieri - Chapter 1 Latin America.flac -=- CDDA (100%)
2227204
 
*CUE
REM GENRE Jazz
REM DATE 1973
REM DISCID 570A1208
REM COMMENT "ExactAudioCopy v0.99pb5"
PERFORMER "Gato Barbieri"
TITLE "Chapter 1: Latin America"
FILE "Gato Barbieri - Chapter 1 Latin America.flac" WAVE
TRACK 01 AUDIO
TITLE "Encuentros"
PERFORMER "Gato Barbieri"
INDEX 00 00:00:00
INDEX 01 00:00:37
TRACK 02 AUDIO
TITLE "India"
PERFORMER "Gato Barbieri"
INDEX 00 12:29:33
INDEX 01 12:30:00
TRACK 03 AUDIO
TITLE "La China Leoncia Arreo"
PERFORMER "Gato Barbieri"
INDEX 00 21:24:68
INDEX 01 21:29:00
TRACK 04 AUDIO
TITLE "La Correntinada Trajo"
PERFORMER "Gato Barbieri"
INDEX 01 23:58:50
TRACK 05 AUDIO
TITLE "Entre La Muchachada"
PERFORMER "Gato Barbieri"
INDEX 01 26:45:50
TRACK 06 AUDIO
TITLE "La Flor De La Juventud"
PERFORMER "Gato Barbieri"
INDEX 01 31:10:30
TRACK 07 AUDIO
TITLE "Nunca Mas"
PERFORMER "Gato Barbieri"
INDEX 01 35:03:12
TRACK 08 AUDIO
TITLE "To Be Continued"
PERFORMER "Gato Barbieri"
INDEX 01 40:28:60
 
Gato Barbieri - Ruby, Ruby (1977)

Трэклист:
01. Ruby (6:31)
02. Nostalgia (5:26)
03. Latin Reaction (5:03)
04. Ngiculela-Es Una Historia-I Am Singing (5:47)
05. Sunride (5:54)
06. Adios (4:45)
07. Blue Angel (5:50)
08. Midnight Tango (4:32)
 
Лог EAC
Exact Audio Copy V0.99 prebeta 5 from 4. May 2009
Отчёт EAC об извлечении, выполненном 6. апреля 2010, 14:12
Gato Barbieri / Ruby, Ruby
Дисковод: SONY DVD RW DRX-S70U Adapter: 2 ID: 0
Режим чтения : Достоверность
Использование точного потока : Да
Отключение кэша аудио : Да
Использование указателей C2 : Нет
Коррекция смещения при чтении : 48
Способность читать области Lead-in и Lead-out : Нет
Заполнение пропущенных сэмплов тишиной : Да
Удаление блоков с тишиной в начале и конце : Нет
При вычислениях CRC использовались нулевые сэмплы : Да
Интерфейс : Встроенный Win32-интерфейс для Win NT/2000
Выходной формат : Пользовательский кодировщик
Выбранный битрейт : 768 kBit/s
Качество : Высокий
Добавление ID3-тэга : Нет
Утилита сжатия : C:\Program Files\Exact Audio Copy\FLAC\FLAC.EXE
Дополнительные параметры : -6 -V -T "ARTIST=%a" -T "TITLE=%t" -T "ALBUM=%g" -T "DATE=%y" -T "TRACKNUMBER=%n" -T "GENRE=%m" -T "COMMENT=%e" %s -o %d
TOC извлечённого CD
Трек | Старт | Длительность | Начальный сектор | Конечный сектор
---------------------------------------------------------------------
1 | 0:00.00 | 6:30.45 | 0 | 29294
2 | 6:30.45 | 5:26.07 | 29295 | 53751
3 | 11:56.52 | 5:02.73 | 53752 | 76474
4 | 16:59.50 | 5:47.37 | 76475 | 102536
5 | 22:47.12 | 5:54.25 | 102537 | 129111
6 | 28:41.37 | 4:45.05 | 129112 | 150491
7 | 33:26.42 | 5:49.40 | 150492 | 176706
8 | 39:16.07 | 4:32.25 | 176707 | 197131
Характеристики диапазона извлечения и сообщения об ошибках
Выбранный диапазон
Имя файла d:\My Documents\Gato Barbieri 1977\Gato Barbieri - Ruby, Ruby.wav
Пиковый уровень 100.0 %
Качество диапазона 100.0 %
CRC теста 8B4672EB
CRC копии 8B4672EB
Копирование... OK
Ошибок не произошло
AccurateRip: сводка
Трек 1 точность не определена (достоверность 2) [EEBF206C], AccurateRip вернул [B1224A7E]
Трек 2 точность не определена (достоверность 2) [051C5D5A], AccurateRip вернул [98A9D821]
Трек 3 точность не определена (достоверность 2) [D7F16529], AccurateRip вернул [894C37D4]
Трек 4 точность не определена (достоверность 2) [B907FD13], AccurateRip вернул [AE2A52CF]
Трек 5 точность не определена (достоверность 2) [86B10D55], AccurateRip вернул [3C3A8647]
Трек 6 точность не определена (достоверность 2) [3358E696], AccurateRip вернул [4B31DFE7]
Трек 7 точность не определена (достоверность 2) [7C248E19], AccurateRip вернул [DB252CCC]
Трек 8 точность не определена (достоверность 2) [23ECE62F], AccurateRip вернул [EC5F38E3]
Ни один трек не прошёл проверки на точность
В вашей базе может быть иной вариант штамповки диска
Конец отчёта
 
Лог Audiochecker
AUDIOCHECKER v2.0 beta (build 457) - by Dester - opdester@freemail.hu
~~~~~~~~~~~~~~~~~~~~~~~~~~~~~~~~~~
-=== DO NOT EDIT THIS FILE! ===-
Путь: ...\Gato Barbieri 1977
1 -=- Gato Barbieri - Ruby, Ruby.flac -=- CDDA (99%)
53192740
 
*CUE
REM GENRE Fusion
REM DATE 1977
REM DISCID 600A4408
REM COMMENT "ExactAudioCopy v0.99pb5"
PERFORMER "Gato Barbieri"
TITLE "Ruby, Ruby"
FILE "Gato Barbieri - Ruby, Ruby.flac" WAVE
TRACK 01 AUDIO
TITLE "Ruby"
PERFORMER "Gato Barbieri"
INDEX 01 00:00:00
TRACK 02 AUDIO
TITLE "Nostalgia"
PERFORMER "Gato Barbieri"
INDEX 00 06:29:32
INDEX 01 06:30:45
TRACK 03 AUDIO
TITLE "Latin Reaction"
PERFORMER "Gato Barbieri"
INDEX 00 11:55:50
INDEX 01 11:56:52
TRACK 04 AUDIO
TITLE "Ngiculela-Es Una Historia-I Am Singing"
PERFORMER "Gato Barbieri"
INDEX 00 16:57:55
INDEX 01 16:59:50
TRACK 05 AUDIO
TITLE "Sunride"
PERFORMER "Gato Barbieri"
INDEX 00 22:46:12
INDEX 01 22:47:12
TRACK 06 AUDIO
TITLE "Adios"
PERFORMER "Gato Barbieri"
INDEX 00 28:40:27
INDEX 01 28:41:37
TRACK 07 AUDIO
TITLE "Blue Angel"
PERFORMER "Gato Barbieri"
INDEX 00 33:26:20
INDEX 01 33:26:42
TRACK 08 AUDIO
TITLE "Midnight Tango"
PERFORMER "Gato Barbieri"
INDEX 00 39:15:15
INDEX 01 39:16:07
 
CUETools log
[CUETools log; Date: 03.02.2016 14:48:31; Version: 2.0.9]
[CTDB TOCID: mRInsgiUl4OQb6S4c3UMKkfls4A-] found.
[ CTDBID ] Status
[e98f1c08] (3/3) Accurately ripped
[AccurateRip ID: 000df82e-005c61f8-600a4408] found.
Track [ CRC ] Status
01 [eebf206c] (0/5) No match
02 [051c5d5a] (0/7) No match
03 [d7f16529] (0/7) No match
04 [b907fd13] (0/5) No match
05 [86b10d55] (0/5) No match
06 [3358e696] (0/5) No match
07 [7c248e19] (0/5) No match
08 [23ece62f] (0/5) No match
Offsetted by 850:
01 [9e91e753] (3/5) Accurately ripped
02 [d5c5f925] (3/7) Accurately ripped
03 [9afb631b] (3/7) Accurately ripped
04 [1750456f] (3/5) Accurately ripped
05 [565c1477] (3/5) Accurately ripped
06 [8ea18132] (3/5) Accurately ripped
07 [cf132321] (3/5) Accurately ripped
08 [b90a7348] (3/5) Accurately ripped
Offsetted by 2210:
01 [b1224a7e] (2/5) Accurately ripped
02 [98a9d821] (2/7) Accurately ripped
03 [894c37d4] (2/7) Accurately ripped
04 [ae2a52cf] (2/5) Accurately ripped
05 [3c3a8647] (2/5) Accurately ripped
06 [4b31dfe7] (2/5) Accurately ripped
07 [db252ccc] (2/5) Accurately ripped
08 [ec5f38e3] (2/5) Accurately ripped
Track Peak [ CRC32 ] [W/O NULL] [ LOG ]
-- 100,0 [8B4672EB] [75AD4432] CRC32
01 91,2 [0C433318] [A27910A2]
02 94,5 [75022A8A] [BF01F54B]
03 100,0 [D315728F] [29BBCFF1]
04 85,3 [4CC92103] [85920D86]
05 97,4 [39049E70] [19867B71]
06 96,2 [3955FDE6] [80489F73]
07 79,9 [F43E165F] [C1BB0651]
08 77,7 [EFBA14D1] [6D77BA4A]
 
Gato Barbieri - Gato... para los amigos (1981)

Трэклист:
01. Introdction, llamerito y tango (9:40)
02. Carnavalito (10:12)
03. Brazil (9:01)
04. Viva Emiliano Zapata (10:31)
05. Latino America (9:39)
06. El arriero (7:42)
07. Bolivia (11:23)
08. Finale (8:29)
 
Лог EAC
Exact Audio Copy V0.99 prebeta 5 from 4. May 2009
Отчёт EAC об извлечении, выполненном 6. апреля 2010, 15:51
Gato Barbieri / Gato... para los amigos
Дисковод: SONY DVD RW DRX-S70U Adapter: 2 ID: 0
Режим чтения : Достоверность
Использование точного потока : Да
Отключение кэша аудио : Да
Использование указателей C2 : Нет
Коррекция смещения при чтении : 48
Способность читать области Lead-in и Lead-out : Нет
Заполнение пропущенных сэмплов тишиной : Да
Удаление блоков с тишиной в начале и конце : Нет
При вычислениях CRC использовались нулевые сэмплы : Да
Интерфейс : Встроенный Win32-интерфейс для Win NT/2000
Выходной формат : Пользовательский кодировщик
Выбранный битрейт : 768 kBit/s
Качество : Высокий
Добавление ID3-тэга : Нет
Утилита сжатия : C:\Program Files\Exact Audio Copy\FLAC\FLAC.EXE
Дополнительные параметры : -6 -V -T "ARTIST=%a" -T "TITLE=%t" -T "ALBUM=%g" -T "DATE=%y" -T "TRACKNUMBER=%n" -T "GENRE=%m" -T "COMMENT=%e" %s -o %d
TOC извлечённого CD
Трек | Старт | Длительность | Начальный сектор | Конечный сектор
---------------------------------------------------------------------
1 | 0:00.00 | 9:40.22 | 0 | 43521
2 | 9:40.22 | 10:12.35 | 43522 | 89456
3 | 19:52.57 | 9:00.50 | 89457 | 130006
4 | 28:53.32 | 10:31.33 | 130007 | 177364
5 | 39:24.65 | 9:38.50 | 177365 | 220764
6 | 49:03.40 | 7:42.00 | 220765 | 255414
7 | 56:45.40 | 11:22.40 | 255415 | 306604
8 | 68:08.05 | 8:28.57 | 306605 | 344761
Характеристики диапазона извлечения и сообщения об ошибках
Выбранный диапазон
Имя файла d:\My Documents\Gato Barbieri 1981\Gato Barbieri - Gato... para los amigos.wav
Пиковый уровень 99.8 %
Качество диапазона 100.0 %
CRC теста 42B8CB80
CRC копии 42B8CB80
Копирование... OK
Ошибок не произошло
AccurateRip: сводка
Трек 1 точное извлечение (доверие 1) [AFD4F037]
Трек 2 точное извлечение (доверие 1) [B4497701]
Трек 3 точное извлечение (доверие 1) [3AF05B9C]
Трек 4 точное извлечение (доверие 1) [722E2E7B]
Трек 5 точное извлечение (доверие 1) [42AAD003]
Трек 6 точное извлечение (доверие 1) [5F1786E4]
Трек 7 точное извлечение (доверие 1) [AA44189B]
Трек 8 точное извлечение (доверие 1) [5BFF1B9A]
Все треки извлечены точно
Конец отчёта
 
Лог Audiochecker
AUDIOCHECKER v2.0 beta (build 457) - by Dester - opdester@freemail.hu
~~~~~~~~~~~~~~~~~~~~~~~~~~~~~~~~~~
-=== DO NOT EDIT THIS FILE! ===-
Путь: ...\Gato Barbieri 1981
1 -=- Gato Barbieri - Gato... para los amigos.flac -=- CDDA (100%)
79554260
 
*CUE
REM GENRE Fusion
REM DATE 1981
REM DISCID 7011F408
REM COMMENT "ExactAudioCopy v0.99pb5"
PERFORMER "Gato Barbieri"
TITLE "Gato... para los amigos"
FILE "Gato Barbieri - Gato... para los amigos.flac" WAVE
TRACK 01 AUDIO
TITLE "Introdction, llamerito y tango"
PERFORMER "Gato Barbieri"
INDEX 01 00:00:00
TRACK 02 AUDIO
TITLE "Carnavalito"
PERFORMER "Gato Barbieri"
INDEX 00 09:28:52
INDEX 01 09:40:22
TRACK 03 AUDIO
TITLE "Brazil"
PERFORMER "Gato Barbieri"
INDEX 00 19:45:15
INDEX 01 19:52:57
TRACK 04 AUDIO
TITLE "Viva Emiliano Zapata"
PERFORMER "Gato Barbieri"
INDEX 00 28:53:30
INDEX 01 28:53:32
TRACK 05 AUDIO
TITLE "Latino America"
PERFORMER "Gato Barbieri"
INDEX 00 39:21:00
INDEX 01 39:24:65
TRACK 06 AUDIO
TITLE "El arriero"
PERFORMER "Gato Barbieri"
INDEX 00 48:55:15
INDEX 01 49:03:40
TRACK 07 AUDIO
TITLE "Bolivia"
PERFORMER "Gato Barbieri"
INDEX 00 56:44:42
INDEX 01 56:45:40
TRACK 08 AUDIO
TITLE "Finale"
PERFORMER "Gato Barbieri"
INDEX 00 68:03:45
INDEX 01 68:08:05
мой скромный вклад в копилку форума и поклонников Gato Barbieri . рипы мои .
14:57
455
Нет комментариев. Ваш будет первым!