Поиск

(Fusion/Ecm) Eberhard Weber - Yellow Fields - 1975, APE (image+.cue), lossless

(Fusion/Ecm) Eberhard Weber - Yellow Fields - 1975, APE (image+.cue), lossless
Треклист:
Eberhard Weber - Yellow Fields
Жанр: Fusion/Ecm
Год выпуска диска: 1975
Производитель диска: Germany
Аудио кодек: APE
Тип рипа: image+.cue
Битрейт аудио: lossless
Продолжительность: 44:21
Трэклист:
1. TOUCH 4:59
2. SAND-GLASS 15:31
3. YELLOW FIELDS 10:04
4. LEFT LANE 13:37
Доп. информация:
EBERHARD WEBER- bass
CHARLIE MARIANO- soprano sax, shenai, nagaswaram
RAINER BRUNINGHAUS- keyboards
JON CHRISTENSEN- drums
Rec. September 1975
За альбом большое спасибо уважаемой gorall007.
 
Отчёт EAC
Exact Audio Copy V0.99 prebeta 4 from 23. January 2008
EAC extraction logfile from 2. May 2009, 17:01
Eberhard Weber / Yellow Fields
Used drive : PLEXTOR DVDR PX-800A Adapter: 1 ID: 1
Read mode : Secure
Utilize accurate stream : Yes
Defeat audio cache : Yes
Make use of C2 pointers : No
Read offset correction : 48
Overread into Lead-In and Lead-Out : No
Fill up missing offset samples with silence : Yes
Delete leading and trailing silent blocks : No
Null samples used in CRC calculations : Yes
Used interface : Installed external ASPI interface
Used output format : Internal WAV Routines
Sample format : 44.100 Hz; 16 Bit; Stereo
TOC of the extracted CD
Track | Start | Length | Start sector | End sector
---------------------------------------------------------
1 | 0:00.33 | 5:02.45 | 33 | 22727
2 | 5:03.03 | 15:34.17 | 22728 | 92794
3 | 20:37.20 | 10:06.45 | 92795 | 138289
4 | 30:43.65 | 13:37.20 | 138290 | 199584
Range status and errors
Selected range
Filename E:\Eberhard Weber Images\Yellow Fields\Yellow Fields.wav
Peak level 93.6 %
Range quality 100.0 %
Copy CRC D27254EA
Copy OK
No errors occurred
AccurateRip summary
Track 1 accurately ripped (confidence 3) [B0DEBDC3]
Track 2 accurately ripped (confidence 4) [72C39A87]
Track 3 accurately ripped (confidence 4) [08018269]
Track 4 accurately ripped (confidence 3) [DF35967E]
All tracks accurately ripped
End of status report
Download available for power users only.
06:15
166
Нет комментариев. Ваш будет первым!