Вы используете незарегистрированную версию компонента "Вкладки"!

Поиск

(Fusion/Crossover Jazz) Jim Beard - Lost At The Carnival - 1995, FLAC (tracks+.cue), lossless

Треклист:
Jim Beard / Lost At The Carnival
Жанр: Fusion/Crossover Jazz
Страна-производитель диска: Germany
Год издания диска: 1995
Издатель (лейбл): Lipstick Records
Номер по каталогу: Lip 89027 2
Страна: USA
Аудиокодек: FLAC (*.flac)
Тип рипа: tracks+.cue
Битрейт аудио: lossless
Продолжительность: 54:33
Источник (релизер): funky_cat
Наличие сканов в содержимом раздачи: нет
Треклист:
1 Step Inside 06:20
2 Chunk And Chairknobs 05:38
3 Pumpkin Fat 05:15
4 Holiday (For Pete And Gladys) 04:57
5 Lost At The Carnival 07:39
6 Jigamarie 07:00
7 Grace In The Bubble 06:34
8 Michigan Roll 05:34
9 Poke 05:31
 
Лог создания рипа
X Lossless Decoder version 20110703 (135.1)
XLD extraction logfile from 2011-08-14 07:33:14 +0400
Jim Beard / Lost At The Carnival
Used drive : HL-DT-ST DVDRW GS23N (revision SB00)
Ripper mode : CDParanoia III 10.2
Disable audio cache : OK for the drive with a cache less than 2750KiB
Make use of C2 pointers : NO
Read offset correction : 667
Max retry count : 10
Gap status : Analyzed, Appended
TOC of the extracted CD
Track | Start | Length | Start sector | End sector
---------------------------------------------------------
1 | 00:00:00 | 06:20:59 | 0 | 28558
2 | 06:20:59 | 05:38:23 | 28559 | 53931
3 | 11:59:07 | 05:15:52 | 53932 | 77608
4 | 17:14:59 | 04:57:43 | 77609 | 99926
5 | 22:12:27 | 07:39:63 | 99927 | 134414
6 | 29:52:15 | 07:00:45 | 134415 | 165959
7 | 36:52:60 | 06:34:25 | 165960 | 195534
8 | 43:27:10 | 05:34:30 | 195535 | 220614
9 | 49:01:40 | 05:31:67 | 220615 | 245506
AccurateRip Summary
Disc not found in AccurateRip DB.
All Tracks
Album gain : -5.23 dB
Peak : 0.977264
Statistics
Read error : 0
Skipped (treated as error) : 0
Edge jitter error (maybe fixed) : 0
Atom jitter error (maybe fixed) : 0
Drift error (maybe fixed) : 0
Dropped bytes error (maybe fixed) : 0
Duplicated bytes error (maybe fixed) : 0
Track 01
Filename : /Users/olegbelov/Downloads/Jim Beard - Lost At The Carnival (1995)/01 - Step Inside.flac
Pre-gap length : 00:02:00
Track gain : -3.92 dB
Peak : 0.977264
CRC32 hash (test run) : 0B3DCDB7
CRC32 hash : 0B3DCDB7
CRC32 hash (skip zero) : E6F76819
AccurateRip signature : 9BE3A2BE
->Track not present in AccurateRip database.
Statistics
Read error : 0
Skipped (treated as error) : 0
Edge jitter error (maybe fixed) : 0
Atom jitter error (maybe fixed) : 0
Drift error (maybe fixed) : 0
Dropped bytes error (maybe fixed) : 0
Duplicated bytes error (maybe fixed) : 0
Inconsistency in error sectors : 0
Track 02
Filename : /Users/olegbelov/Downloads/Jim Beard - Lost At The Carnival (1995)/02 - Chunk And Chairknobs.flac
Track gain : -2.94 dB
Peak : 0.977264
CRC32 hash (test run) : 2005E77B
CRC32 hash : 2005E77B
CRC32 hash (skip zero) : 66FCA1C6
AccurateRip signature : 51C640BD
->Track not present in AccurateRip database.
Statistics
Read error : 0
Skipped (treated as error) : 0
Edge jitter error (maybe fixed) : 0
Atom jitter error (maybe fixed) : 0
Drift error (maybe fixed) : 0
Dropped bytes error (maybe fixed) : 0
Duplicated bytes error (maybe fixed) : 0
Inconsistency in error sectors : 0
Track 03
Filename : /Users/olegbelov/Downloads/Jim Beard - Lost At The Carnival (1995)/03 - Pumpkin Fat.flac
Track gain : -6.14 dB
Peak : 0.977264
CRC32 hash (test run) : C88DDF00
CRC32 hash : C88DDF00
CRC32 hash (skip zero) : DAC03CFA
AccurateRip signature : F9483F9E
->Track not present in AccurateRip database.
Statistics
Read error : 0
Skipped (treated as error) : 0
Edge jitter error (maybe fixed) : 0
Atom jitter error (maybe fixed) : 0
Drift error (maybe fixed) : 0
Dropped bytes error (maybe fixed) : 0
Duplicated bytes error (maybe fixed) : 0
Inconsistency in error sectors : 0
Track 04
Filename : /Users/olegbelov/Downloads/Jim Beard - Lost At The Carnival (1995)/04 - Holiday (For Pete And Gladys).flac
Track gain : -5.94 dB
Peak : 0.977264
CRC32 hash (test run) : 0742ACA1
CRC32 hash : 0742ACA1
CRC32 hash (skip zero) : CF67B0E3
AccurateRip signature : 6BECD4DC
->Track not present in AccurateRip database.
Statistics
Read error : 0
Skipped (treated as error) : 0
Edge jitter error (maybe fixed) : 0
Atom jitter error (maybe fixed) : 0
Drift error (maybe fixed) : 0
Dropped bytes error (maybe fixed) : 0
Duplicated bytes error (maybe fixed) : 0
Inconsistency in error sectors : 0
Track 05
Filename : /Users/olegbelov/Downloads/Jim Beard - Lost At The Carnival (1995)/05 - Lost At The Carnival.flac
Track gain : -5.05 dB
Peak : 0.977264
CRC32 hash (test run) : C4545803
CRC32 hash : C4545803
CRC32 hash (skip zero) : C2FB1583
AccurateRip signature : A3A2AAA1
->Track not present in AccurateRip database.
Statistics
Read error : 0
Skipped (treated as error) : 0
Edge jitter error (maybe fixed) : 0
Atom jitter error (maybe fixed) : 0
Drift error (maybe fixed) : 0
Dropped bytes error (maybe fixed) : 0
Duplicated bytes error (maybe fixed) : 0
Inconsistency in error sectors : 0
Track 06
Filename : /Users/olegbelov/Downloads/Jim Beard - Lost At The Carnival (1995)/06 - Jigamarie.flac
Track gain : -4.93 dB
Peak : 0.977264
CRC32 hash (test run) : 7D062B16
CRC32 hash : 7D062B16
CRC32 hash (skip zero) : 3062ECD4
AccurateRip signature : E74C3B35
->Track not present in AccurateRip database.
Statistics
Read error : 0
Skipped (treated as error) : 0
Edge jitter error (maybe fixed) : 0
Atom jitter error (maybe fixed) : 0
Drift error (maybe fixed) : 0
Dropped bytes error (maybe fixed) : 0
Duplicated bytes error (maybe fixed) : 0
Inconsistency in error sectors : 0
Track 07
Filename : /Users/olegbelov/Downloads/Jim Beard - Lost At The Carnival (1995)/07 - Grace In The Bubble.flac
Track gain : -4.96 dB
Peak : 0.977264
CRC32 hash (test run) : 494220F0
CRC32 hash : 494220F0
CRC32 hash (skip zero) : B87E88F5
AccurateRip signature : D1139D43
->Track not present in AccurateRip database.
Statistics
Read error : 0
Skipped (treated as error) : 0
Edge jitter error (maybe fixed) : 0
Atom jitter error (maybe fixed) : 0
Drift error (maybe fixed) : 0
Dropped bytes error (maybe fixed) : 0
Duplicated bytes error (maybe fixed) : 0
Inconsistency in error sectors : 0
Track 08
Filename : /Users/olegbelov/Downloads/Jim Beard - Lost At The Carnival (1995)/08 - Michigan Roll.flac
Track gain : -6.16 dB
Peak : 0.977264
CRC32 hash (test run) : 8A696F27
CRC32 hash : 8A696F27
CRC32 hash (skip zero) : D213CC53
AccurateRip signature : 5F6C9FCF
->Track not present in AccurateRip database.
Statistics
Read error : 0
Skipped (treated as error) : 0
Edge jitter error (maybe fixed) : 0
Atom jitter error (maybe fixed) : 0
Drift error (maybe fixed) : 0
Dropped bytes error (maybe fixed) : 0
Duplicated bytes error (maybe fixed) : 0
Inconsistency in error sectors : 0
Track 09
Filename : /Users/olegbelov/Downloads/Jim Beard - Lost At The Carnival (1995)/09 - Poke.flac
Track gain : -4.23 dB
Peak : 0.977264
CRC32 hash (test run) : 44C160C9
CRC32 hash : 44C160C9
CRC32 hash (skip zero) : F7A90883
AccurateRip signature : 28359DB1
->Track not present in AccurateRip database.
Statistics
Read error : 0
Skipped (treated as error) : 0
Edge jitter error (maybe fixed) : 0
Atom jitter error (maybe fixed) : 0
Drift error (maybe fixed) : 0
Dropped bytes error (maybe fixed) : 0
Duplicated bytes error (maybe fixed) : 0
Inconsistency in error sectors : 0
No errors occurred
End of status report
 
Содержание индексной карты (.CUE)
TITLE "Lost At The Carnival"
PERFORMER "Jim Beard"
REM GENRE "Jazz"
REM DATE "1995"
REM DISCID 6F0CC909
REM REPLAYGAIN_ALBUM_GAIN -5.23 dB
REM REPLAYGAIN_ALBUM_PEAK 0.977264
FILE "01 - Step Inside.flac" WAVE
TRACK 01 AUDIO
TITLE "Step Inside"
REM REPLAYGAIN_TRACK_GAIN -3.92 dB
REM REPLAYGAIN_TRACK_PEAK 0.977264
INDEX 01 00:00:00
FILE "02 - Chunk And Chairknobs.flac" WAVE
TRACK 02 AUDIO
TITLE "Chunk And Chairknobs"
REM REPLAYGAIN_TRACK_GAIN -2.94 dB
REM REPLAYGAIN_TRACK_PEAK 0.977264
INDEX 01 00:00:00
FILE "03 - Pumpkin Fat.flac" WAVE
TRACK 03 AUDIO
TITLE "Pumpkin Fat"
REM REPLAYGAIN_TRACK_GAIN -6.14 dB
REM REPLAYGAIN_TRACK_PEAK 0.977264
INDEX 01 00:00:00
FILE "04 - Holiday (For Pete And Gladys).flac" WAVE
TRACK 04 AUDIO
TITLE "Holiday (For Pete And Gladys)"
REM REPLAYGAIN_TRACK_GAIN -5.94 dB
REM REPLAYGAIN_TRACK_PEAK 0.977264
INDEX 01 00:00:00
FILE "05 - Lost At The Carnival.flac" WAVE
TRACK 05 AUDIO
TITLE "Lost At The Carnival"
REM REPLAYGAIN_TRACK_GAIN -5.05 dB
REM REPLAYGAIN_TRACK_PEAK 0.977264
INDEX 01 00:00:00
FILE "06 - Jigamarie.flac" WAVE
TRACK 06 AUDIO
TITLE "Jigamarie"
REM REPLAYGAIN_TRACK_GAIN -4.93 dB
REM REPLAYGAIN_TRACK_PEAK 0.977264
INDEX 01 00:00:00
FILE "07 - Grace In The Bubble.flac" WAVE
TRACK 07 AUDIO
TITLE "Grace In The Bubble"
REM REPLAYGAIN_TRACK_GAIN -4.96 dB
REM REPLAYGAIN_TRACK_PEAK 0.977264
INDEX 01 00:00:00
FILE "08 - Michigan Roll.flac" WAVE
TRACK 08 AUDIO
TITLE "Michigan Roll"
REM REPLAYGAIN_TRACK_GAIN -6.16 dB
REM REPLAYGAIN_TRACK_PEAK 0.977264
INDEX 01 00:00:00
FILE "09 - Poke.flac" WAVE
TRACK 09 AUDIO
TITLE "Poke"
REM REPLAYGAIN_TRACK_GAIN -4.23 dB
REM REPLAYGAIN_TRACK_PEAK 0.977264
INDEX 01 00:00:00
 
Состав
Jim Beard (piano, keyboards, synthesizer, percussion)
Jon Herington (guitar, harmonica, percussion)
Stan Harrison (flute, alto flute, clarinet, bass clarinet)
Bill Evans (soprano saxophone, tenor saxophone)
Steve Rodby (acoustic bass)
Bill Ward (drums, cymbals)
Scooter Warner (drums)
Any questions - support@pro-jazz.com. Есть вопросы - support@pro-jazz.com
07:29
217
Нет комментариев. Ваш будет первым!