Поиск

(Fusion, World Fusion, Brazilian Jazz) Flora Purim - Carry On - 1979, FLAC (tracks+.cue), lossless

(Fusion, World Fusion, Brazilian Jazz) Flora Purim - Carry On - 1979, FLAC (tracks+.cue), lossless
Треклист:
Flora Purim - Carry On
Жанр: Fusion, World Fusion, Brazilian Jazz
Страна-производитель диска: Германия
Год издания: 2002
Издатель (лейбл): Warner
Номер по каталогу: 81227 3620-2
Страна: США
Аудиокодек: FLAC (*.flac)
Тип рипа: tracks+.cue
Битрейт аудио: lossless
Продолжительность: 38:26
Источник (релизер): roloho (demonoid)
Наличие сканов в содержимом раздачи: да
Треклист:
01. Sarara (Gil) - 4:06
02. From the Lonely Afternoon (Nascimento) - 3:25
03. Niura Is Coming Back (Purim) - 2:53
04. Once I Ran Away (Purim) - 3:38
05. Carry On (Duke) - 5:17
06. Love Lock (Lucas-Mtume) - 3:32
07. Corine (Duke-Moreira-Purim) - 4:52
08. Islands in the Sun Interlude (Batteau-Sembello) - 1:29
09. Beijo Paritido (Broken Kiss) (Horta) - 4:40
10. Freeway Jam (Middleton) - 4:34
 
Состав
Flora Purim - vocals
George Duke - vocals, piano, Fender Rhodes piano, keyboards, synthesizer, ARP synthesizer, Moog synthesizer, Oberheim synthesizer
Al Jarreau - vocals
Michael Sembello - guitar, acoustic guitar
David Myles - guitar, electric guitar
David Amaro - electric guitar, bagpipe
Larry Williams - flute, piccolo, alto saxophone
Joe Farrell - flute, soprano saxophone
Greg Phillinganes - melodica, synthesizer
Jerry Hey - trumpet
Gary Buho Gazaway - flugelhorn
Raul de Souza, Bill Reichenbach Jr. , William Reichenbach - trombone
Bobby Lyle - piano, keyboards, synthesizer
Hugo Fattoruso - keyboards, synthesizer
Ronnie Foster - keyboards
Fred Fleck - drums, talking drum
Airto Moreira - drums, cowbells, shaker, tambourine, triangle, wood block, percussion
Leon "Ndugu" Chancler - drums, hi-hat
Ricky Lawson - drums
Michael Azevedo, Laudir DeOliveira - congas
Sheila Escovedo - timbales, wood block, percussion
Josie James, Lynn Davis - background vocals
Byron Miller, Keith Jones - bass
 
Лог создания рипа
Exact Audio Copy V0.99 prebeta 4 from 23. January 2008
EAC extraction logfile from 20. April 2012, 16:41
Flora Purim / Carry On
Used drive : HP DVD Writer 640b Adapter: 4 ID: 0
Read mode : Secure
Utilize accurate stream : Yes
Defeat audio cache : Yes
Make use of C2 pointers : No
Read offset correction : 102
Overread into Lead-In and Lead-Out : No
Fill up missing offset samples with silence : Yes
Delete leading and trailing silent blocks : No
Null samples used in CRC calculations : Yes
Used interface : Installed external ASPI interface
Gap handling : Appended to previous track
Used output format : User Defined Encoder
Selected bitrate : 320 kBit/s
Quality : High
Add ID3 tag : No
Command line compressor : C:\Program Files\Exact Audio Copy\flac.exe
Additional command line options : -8 -V -T "ARTIST=%a" -T "TITLE=%t" -T "ALBUM=%g" -T "DATE=%y" -T "TRACKNUMBER=%n" -T "GENRE=%m" -T "COMMENT=EAC FLAC -8" %s
TOC of the extracted CD
Track | Start | Length | Start sector | End sector
---------------------------------------------------------
1 | 0:00.00 | 4:06.25 | 0 | 18474
2 | 4:06.25 | 3:25.37 | 18475 | 33886
3 | 7:31.62 | 2:53.48 | 33887 | 46909
4 | 10:25.35 | 3:38.25 | 46910 | 63284
5 | 14:03.60 | 5:17.57 | 63285 | 87116
6 | 19:21.42 | 3:32.08 | 87117 | 103024
7 | 22:53.50 | 4:52.70 | 103025 | 124994
8 | 27:46.45 | 1:29.52 | 124995 | 131721
9 | 29:16.22 | 4:40.20 | 131722 | 152741
10 | 33:56.42 | 4:34.05 | 152742 | 173296
Track 1
Filename C:\Program Files\Exact Audio Copy\flora purim carry on\01Sarara.wav
Pre-gap length 0:00:02.00
Peak level 92.3 %
Track quality 100.0 %
Copy CRC 15B967F9
Accurately ripped (confidence 4) [81D0E072]
Copy OK
Track 2
Filename C:\Program Files\Exact Audio Copy\flora purim carry on\02From The Lonely Afternoon.wav
Peak level 91.3 %
Track quality 100.0 %
Copy CRC B3C3FF41
Accurately ripped (confidence 4) [EF0D511B]
Copy OK
Track 3
Filename C:\Program Files\Exact Audio Copy\flora purim carry on\03Niura Is Coming Back.wav
Peak level 69.1 %
Track quality 100.0 %
Copy CRC 6D7C0961
Accurately ripped (confidence 4) [2E1F5D7D]
Copy OK
Track 4
Filename C:\Program Files\Exact Audio Copy\flora purim carry on\04Once I Ran Away.wav
Peak level 86.8 %
Track quality 100.0 %
Copy CRC C31263D4
Accurately ripped (confidence 4) [B9C8751B]
Copy OK
Track 5
Filename C:\Program Files\Exact Audio Copy\flora purim carry on\05Carry On.wav
Peak level 95.7 %
Track quality 99.9 %
Copy CRC 8FD9F9D2
Accurately ripped (confidence 4) [5C35639C]
Copy OK
Track 6
Filename C:\Program Files\Exact Audio Copy\flora purim carry on\06Love Lock.wav
Peak level 96.4 %
Track quality 100.0 %
Copy CRC 13518E92
Accurately ripped (confidence 4) [CBD7D51E]
Copy OK
Track 7
Filename C:\Program Files\Exact Audio Copy\flora purim carry on\07Corine.wav
Peak level 95.4 %
Track quality 100.0 %
Copy CRC B12EFDEA
Accurately ripped (confidence 4) [133C1528]
Copy OK
Track 8
Filename C:\Program Files\Exact Audio Copy\flora purim carry on\08Island In The Sun Interlude.wav
Peak level 91.5 %
Track quality 100.0 %
Copy CRC C4E2BAB2
Accurately ripped (confidence 4) [DA7A57FC]
Copy OK
Track 9
Filename C:\Program Files\Exact Audio Copy\flora purim carry on\09Beijo Partido (Broken Kiss).wav
Peak level 86.6 %
Track quality 99.9 %
Copy CRC 3944A4F7
Accurately ripped (confidence 4) [FCC537F5]
Copy OK
Track 10
Filename C:\Program Files\Exact Audio Copy\flora purim carry on\10Freeway Jam.wav
Peak level 94.3 %
Track quality 100.0 %
Copy CRC C223AB85
Accurately ripped (confidence 3) [5077CBE3]
Copy OK
All tracks accurately ripped
No errors occurred
End of status report
 
Содержание индексной карты (.CUE)
REM GENRE Jazz
REM DATE 1979
REM DISCID 8E09060A
REM COMMENT "ExactAudioCopy v0.99pb4"
PERFORMER "Flora Purim"
TITLE "Carry On"
FILE "01 - Sarara.wav" WAVE
TRACK 01 AUDIO
TITLE "Sarara"
PERFORMER "Flora Purim"
INDEX 01 00:00:00
FILE "02 - From the Lonely Afternoon.wav" WAVE
TRACK 02 AUDIO
TITLE "From the Lonely Afternoon"
PERFORMER "Flora Purim"
INDEX 01 00:00:00
FILE "03 - Niura Is Coming Back.wav" WAVE
TRACK 03 AUDIO
TITLE "Niura Is Coming Back"
PERFORMER "Flora Purim"
INDEX 01 00:00:00
FILE "04 - Once I Ran Away.wav" WAVE
TRACK 04 AUDIO
TITLE "Once I Ran Away"
PERFORMER "Flora Purim"
INDEX 01 00:00:00
FILE "05 - Carry On.wav" WAVE
TRACK 05 AUDIO
TITLE "Carry On"
PERFORMER "Flora Purim"
INDEX 01 00:00:00
INDEX 02 02:59:30
FILE "06 - Love Lock.wav" WAVE
TRACK 06 AUDIO
TITLE "Love Lock"
PERFORMER "Flora Purim"
INDEX 01 00:00:00
FILE "07 - Corine.wav" WAVE
TRACK 07 AUDIO
TITLE "Corine"
PERFORMER "Flora Purim"
INDEX 01 00:00:00
FILE "08 - Island in the Sun Interlude.wav" WAVE
TRACK 08 AUDIO
TITLE "Island in the Sun Interlude"
PERFORMER "Flora Purim"
INDEX 01 00:00:00
FILE "09 - Beijo Partido (Broken Kiss).wav" WAVE
TRACK 09 AUDIO
TITLE "Beijo Partido (Broken Kiss)"
PERFORMER "Flora Purim"
INDEX 01 00:00:00
FILE "10 - Freeway Jam.wav" WAVE
TRACK 10 AUDIO
TITLE "Freeway Jam"
PERFORMER "Flora Purim"
INDEX 01 00:00:00
 
Лог проверки качества
auCDtect: CD records authenticity detector, version 0.8.2
Copyright (c) 2004 Oleg Berngardt. All rights reserved.
Copyright (c) 2004 Alexander Djourik. All rights reserved.
------------------------------------------------------------
Processing file: [01 - Sarara.wav]
Detected average hi-boundary frequency: 2.024620e+004 Hz
Detected average lo-boundary frequency: 1.285470e+004 Hz
Detected average hi-cut frequency: 2.176966e+004 Hz
Detected average lo-cut frequency: 1.161997e+004 Hz
Maximum probablis boundary frequency: 2.189100e+004 Hz
Coefficient of nonlinearity of a phase: 2.976278e-001
First order smothness: 4.540295e-001
Second order smothness: 5.864548e-001
------------------------------------------------------------
This track looks like CDDA with probability 100%
------------------------------------------------------------
Processing file: [02 - From the Lonely Afternoon.wav]
Detected average hi-boundary frequency: 2.029729e+004 Hz
Detected average lo-boundary frequency: 1.361347e+004 Hz
Detected average hi-cut frequency: 2.165015e+004 Hz
Detected average lo-cut frequency: 1.047591e+004 Hz
Maximum probablis boundary frequency: 2.189100e+004 Hz
Coefficient of nonlinearity of a phase: 6.963284e-001
First order smothness: 4.130140e-001
Second order smothness: 6.195210e-001
------------------------------------------------------------
This track looks like CDDA with probability 100%
------------------------------------------------------------
Processing file: [03 - Niura Is Coming Back.wav]
Detected average hi-boundary frequency: 2.065313e+004 Hz
Detected average lo-boundary frequency: 1.518459e+004 Hz
Detected average hi-cut frequency: 2.171920e+004 Hz
Detected average lo-cut frequency: 1.574570e+004 Hz
Maximum probablis boundary frequency: 2.189100e+004 Hz
Coefficient of nonlinearity of a phase: 1.174191e-001
First order smothness: 5.438503e-001
Second order smothness: 7.983957e-001
------------------------------------------------------------
This track looks like CDDA with probability 100%
------------------------------------------------------------
Processing file: [04 - Once I Ran Away.wav]
Detected average hi-boundary frequency: 2.027864e+004 Hz
Detected average lo-boundary frequency: 1.370632e+004 Hz
Detected average hi-cut frequency: 2.169346e+004 Hz
Detected average lo-cut frequency: 1.181374e+004 Hz
Maximum probablis boundary frequency: 2.189100e+004 Hz
Coefficient of nonlinearity of a phase: 6.647621e-001
First order smothness: 3.904721e-001
Second order smothness: 6.886431e-001
------------------------------------------------------------
This track looks like CDDA with probability 100%
------------------------------------------------------------
Processing file: [05 - Carry On.wav]
Detected average hi-boundary frequency: 2.025743e+004 Hz
Detected average lo-boundary frequency: 1.363262e+004 Hz
Detected average hi-cut frequency: 2.166591e+004 Hz
Detected average lo-cut frequency: 1.123975e+004 Hz
Maximum probablis boundary frequency: 2.189100e+004 Hz
Coefficient of nonlinearity of a phase: 1.333365e-001
First order smothness: 4.292811e-001
Second order smothness: 4.734074e-001
------------------------------------------------------------
This track looks like CDDA with probability 100%
------------------------------------------------------------
Processing file: [06 - Love Lock.wav]
Detected average hi-boundary frequency: 2.032736e+004 Hz
Detected average lo-boundary frequency: 1.298755e+004 Hz
Detected average hi-cut frequency: 2.157438e+004 Hz
Detected average lo-cut frequency: 9.273162e+003 Hz
Maximum probablis boundary frequency: 2.189100e+004 Hz
Coefficient of nonlinearity of a phase: 3.922446e-001
First order smothness: 4.776708e-001
Second order smothness: 5.626095e-001
------------------------------------------------------------
This track looks like CDDA with probability 100%
------------------------------------------------------------
Processing file: [07 - Corine.wav]
Detected average hi-boundary frequency: 2.021772e+004 Hz
Detected average lo-boundary frequency: 1.329152e+004 Hz
Detected average hi-cut frequency: 2.163568e+004 Hz
Detected average lo-cut frequency: 1.130367e+004 Hz
Maximum probablis boundary frequency: 2.189100e+004 Hz
Coefficient of nonlinearity of a phase: 5.739478e-001
First order smothness: 4.254914e-001
Second order smothness: 5.754597e-001
------------------------------------------------------------
This track looks like CDDA with probability 100%
------------------------------------------------------------
Processing file: [08 - Island in the Sun Interlude.wav]
Detected average hi-boundary frequency: 2.017564e+004 Hz
Detected average lo-boundary frequency: 1.321164e+004 Hz
Detected average hi-cut frequency: 2.153435e+004 Hz
Detected average lo-cut frequency: 5.882259e+003 Hz
Maximum probablis boundary frequency: 2.189100e+004 Hz
Coefficient of nonlinearity of a phase: 1.192524e+000
First order smothness: 4.585921e-001
Second order smothness: 5.041408e-001
------------------------------------------------------------
This track looks like CDDA with probability 100%
------------------------------------------------------------
Processing file: [09 - Beijo Partido (Broken Kiss).wav]
Detected average hi-boundary frequency: 2.031082e+004 Hz
Detected average lo-boundary frequency: 1.438343e+004 Hz
Detected average hi-cut frequency: 2.149189e+004 Hz
Detected average lo-cut frequency: 1.281157e+004 Hz
Maximum probablis boundary frequency: 2.189100e+004 Hz
Coefficient of nonlinearity of a phase: 1.904434e-001
First order smothness: 3.505633e-001
Second order smothness: 7.418820e-001
------------------------------------------------------------
This track looks like CDDA with probability 100%
------------------------------------------------------------
Processing file: [10 - Freeway Jam.wav]
Detected average hi-boundary frequency: 2.032824e+004 Hz
Detected average lo-boundary frequency: 1.339457e+004 Hz
Detected average hi-cut frequency: 2.158985e+004 Hz
Detected average lo-cut frequency: 1.097784e+004 Hz
Maximum probablis boundary frequency: 2.189100e+004 Hz
Coefficient of nonlinearity of a phase: 2.623426e-001
First order smothness: 4.497965e-001
Second order smothness: 5.278155e-001
------------------------------------------------------------
This track looks like CDDA with probability 100%
 
Review by Alex Henderson
In 1979, jazz was no longer George Duke's primary focus; his albums were emphasizing soul/funk, and many of the R&B fans who knew him for late '70s hits, like "Dukey Stick," "I Want You for Myself," and "Reach for It," knew little or nothing about his work with Cannonball Adderley, Billy Cobham, or Jean-Luc Ponty. But Duke was still producing some jazz albums here and there, although they weren't necessarily straight ahead. Even though Flora Purim's Carry On, which Duke produced, is primarily a Brazilian jazz album, it isn't for jazz purists -- rather, Purim provides an eclectic blend of jazz, samba, R&B/funk, rock and pop. Purim has many inspired moments on this LP and is joined by members of Duke's late '70s band -- bassist Byron Miller, drummers Ricky Lawson and Leon "Ndugu" Chancler, percussionist Sheila Escovedo (who became Sheila E after joining forces with Prince in 1984), keyboardist Bobby Lyle, trumpeter Jerry Hey, and saxman Joe Farrell. In addition to excelling on Duke's funky title song, Gilberto Gil's "Sarara," and Toninho Horta's "Beijo Partido," Purim really lets loose on Milton Nascimento's "From the Lonely Afternoon." Those who associate "From the Lonely Afternoon" with Wayne Shorter's superb Native Dancer album will find Purim's interpretation to be faster and more intense.
03:33
488
Нет комментариев. Ваш будет первым!