Поиск

(Fusion) Tom Kennedy (feat. Dave Weckl, Tania Maria) - Basses Loaded - 1997, FLAC (tracks+.cue) lossless

(Fusion) Tom Kennedy (feat. Dave Weckl, Tania Maria) - Basses Loaded - 1997, FLAC (tracks+.cue) lossless
Треклист:
Tom Kennedy / Basses Loaded
Жанр: Fusion
Год издания диска: 1997
Издатель (лейбл): Tkm Records
Номер по каталогу: B000005YMC
Аудио кодек: FLAC (*.flac)
Тип рипа: tracks+.cue
Битрейт аудио: lossless
Продолжительность: 46:28
Источник (релизер): Richard.drummer
Наличие сканов в содержимом раздачи: нет
Треклист:
01. Song For Sara
02. Caravan
03. Her Eyes
04. Alfred's Book #1
05. Crystal
06. Made In New York
07. I'll See You
08. All Of You
09. Oleo
Personnel:
Tom Kennedy - (acoustic and electric basses, keyboards),
Tania Maria - (vocals, piano, tracks 4,6),
Dave Weckl -(drums),
Ray Kennedy - (acoustic piano, keyboards),
Sammy Figueroa - (percussion),
Keith Fiddmont - (soprano, tenor saxophones)
 
Лог создания рипа
Exact Audio Copy V0.99 prebeta 4 from 23. January 2008
EAC extraction logfile from 19. July 2008, 21:33
Tom Kennedy / Basses Loaded
Used drive : PIONEER DVD-RW DVR-110D Adapter: 0 ID: 0
Read mode : Secure
Utilize accurate stream : Yes
Defeat audio cache : Yes
Make use of C2 pointers : No
Read offset correction : 48
Overread into Lead-In and Lead-Out : No
Fill up missing offset samples with silence : Yes
Delete leading and trailing silent blocks : No
Null samples used in CRC calculations : Yes
Used interface : Installed external ASPI interface
Gap handling : Not detected, thus appended to previous track
Used output format : User Defined Encoder
Selected bitrate : 768 kBit/s
Quality : High
Add ID3 tag : No
Command line compressor : C:\Program Files\Exact Audio Copy\FLAC\FLAC.EXE
Additional command line options : -6 -V -T "ARTIST=%a" -T "TITLE=%t" -T "ALBUM=%g" -T "DATE=%y" -T "TRACKNUMBER=%n" -T "GENRE=%m" -T "COMMENT=%e" %s -o %d
TOC of the extracted CD
Track | Start | Length | Start sector | End sector
---------------------------------------------------------
1 | 0:00.32 | 5:17.68 | 32 | 23874
2 | 5:18.25 | 5:18.47 | 23875 | 47771
3 | 10:36.72 | 4:50.20 | 47772 | 69541
4 | 15:27.17 | 6:37.73 | 69542 | 99389
5 | 22:05.15 | 3:54.30 | 99390 | 116969
6 | 25:59.45 | 5:49.52 | 116970 | 143196
7 | 31:49.22 | 5:57.15 | 143197 | 169986
8 | 37:46.37 | 5:48.23 | 169987 | 196109
9 | 43:34.60 | 2:53.57 | 196110 | 209141
Track 1
Filename C:\Converted\01. Song for Sara.wav
Peak level 100.0 %
Track quality 99.9 %
Copy CRC FD2DC75B
Track not present in AccurateRip database
Copy OK
Track 2
Filename C:\Converted\02. Caravan.wav
Peak level 100.0 %
Track quality 100.0 %
Copy CRC C740ADAC
Track not present in AccurateRip database
Copy OK
Track 3
Filename C:\Converted\03. Her Eyes.wav
Peak level 100.0 %
Track quality 100.0 %
Copy CRC 5F720984
Track not present in AccurateRip database
Copy OK
Track 4
Filename C:\Converted\04. Alfred's Book #1.wav
Peak level 100.0 %
Track quality 100.0 %
Copy CRC 25EE2FD7
Track not present in AccurateRip database
Copy OK
Track 5
Filename C:\Converted\05. Crystal.wav
Peak level 100.0 %
Track quality 100.0 %
Copy CRC 69B5230B
Track not present in AccurateRip database
Copy OK
Track 6
Filename C:\Converted\06. Made in New York.wav
Peak level 100.0 %
Track quality 100.0 %
Copy CRC D54758D8
Track not present in AccurateRip database
Copy OK
Track 7
Filename C:\Converted\07. I'll See You.wav
Peak level 99.9 %
Track quality 100.0 %
Copy CRC 32480C4B
Track not present in AccurateRip database
Copy OK
Track 8
Filename C:\Converted\08. All of You.wav
Peak level 100.0 %
Track quality 100.0 %
Copy CRC CC350792
Track not present in AccurateRip database
Copy OK
Track 9
Filename C:\Converted\09. Oleo.wav
Peak level 100.0 %
Track quality 100.0 %
Copy CRC 87331E7B
Track not present in AccurateRip database
Copy OK
None of the tracks are present in the AccurateRip database
No errors occurred
End of status report
 
Содержание индексной карты (.CUE)
REM GENRE Jazz
REM DATE 1996
REM DISCID 730AE409
REM COMMENT "ExactAudioCopy v0.99pb4"
PERFORMER "Tom Kennedy"
TITLE "Basses Loaded"
FILE "01. Song for Sara.wav" WAVE
TRACK 01 AUDIO
TITLE "Song for Sara"
PERFORMER "Tom Kennedy"
PREGAP 00:00:32
INDEX 01 00:00:00
TRACK 02 AUDIO
TITLE "Caravan"
PERFORMER "Tom Kennedy"
INDEX 00 05:16:05
FILE "02. Caravan.wav" WAVE
INDEX 01 00:00:00
TRACK 03 AUDIO
TITLE "Her Eyes"
PERFORMER "Tom Kennedy"
INDEX 00 05:17:05
FILE "03. Her Eyes.wav" WAVE
INDEX 01 00:00:00
TRACK 04 AUDIO
TITLE "Alfred's Book #1"
PERFORMER "Tom Kennedy"
INDEX 00 04:49:05
FILE "04. Alfred's Book #1.wav" WAVE
INDEX 01 00:00:00
TRACK 05 AUDIO
TITLE "Crystal"
PERFORMER "Tom Kennedy"
INDEX 00 06:35:25
FILE "05. Crystal.wav" WAVE
INDEX 01 00:00:00
TRACK 06 AUDIO
TITLE "Made in New York"
PERFORMER "Tom Kennedy"
INDEX 00 03:52:47
FILE "06. Made in New York.wav" WAVE
INDEX 01 00:00:00
TRACK 07 AUDIO
TITLE "I'll See You"
PERFORMER "Tom Kennedy"
INDEX 00 05:47:17
FILE "07. I'll See You.wav" WAVE
INDEX 01 00:00:00
TRACK 08 AUDIO
TITLE "All of You"
PERFORMER "Tom Kennedy"
INDEX 00 05:56:33
FILE "08. All of You.wav" WAVE
INDEX 01 00:00:00
TRACK 09 AUDIO
TITLE "Oleo"
PERFORMER "Tom Kennedy"
INDEX 00 05:46:58
FILE "09. Oleo.wav" WAVE
INDEX 01 00:00:00
 
Лог проверки качества
Started at: воскресенье, 17. 10. 2010. - 21:21.04
9 files found
1 -===- c:\Downloads\Tom Kennedy - Basses Loaded\01. Song for Sara.flac
Extracted successfully
Conclusion: this track is CDDA with probability 100%
Tempfile successfully deleted.
2 -===- c:\Downloads\Tom Kennedy - Basses Loaded\02. Caravan.flac
Extracted successfully
Conclusion: this track is CDDA with probability 100%
Tempfile successfully deleted.
3 -===- c:\Downloads\Tom Kennedy - Basses Loaded\03. Her Eyes.flac
Extracted successfully
Conclusion: this track is CDDA with probability 100%
Tempfile successfully deleted.
4 -===- c:\Downloads\Tom Kennedy - Basses Loaded\04. Alfred's Book #1.flac
Extracted successfully
Conclusion: this track is CDDA with probability 100%
Tempfile successfully deleted.
5 -===- c:\Downloads\Tom Kennedy - Basses Loaded\05. Crystal.flac
Extracted successfully
Conclusion: this track is CDDA with probability 100%
Tempfile successfully deleted.
6 -===- c:\Downloads\Tom Kennedy - Basses Loaded\06. Made in New York.flac
Extracted successfully
Conclusion: this track is CDDA with probability 100%
Tempfile successfully deleted.
7 -===- c:\Downloads\Tom Kennedy - Basses Loaded\07. I'll See You.flac
Extracted successfully
Conclusion: this track is CDDA with probability 100%
Tempfile successfully deleted.
8 -===- c:\Downloads\Tom Kennedy - Basses Loaded\08. All of You.flac
Extracted successfully
Conclusion: this track is CDDA with probability 100%
Tempfile successfully deleted.
9 -===- c:\Downloads\Tom Kennedy - Basses Loaded\09. Oleo.flac
Extracted successfully
Conclusion: this track is CDDA with probability 100%
Tempfile successfully deleted.
Finished at: воскресенье, 17. 10. 2010. - 21:24.40 (operation time: 0:03.36)
 
Об альбоме (сборнике)
Tom is recognized as one of the top acoustic and electric bassists on the jazz and contemporary music scene over the last 25 years, and his deep soulful grooves and horn-like solos are evident in countless live and studio performances worldwide.
Tom released his debut solo CD "Basses Loaded" in 1997, featuring Dave Weckl, Tonia Maria, Ray Kennedy and Sammy Figueroa. In 2004, he decided to release a mainstream acoustic recording, and called on jazz legends Mundell Lowe and Joe LaBarbera to complete the trio for his second solo project, “Bassics.”
Приятных впечатлений!
Приватный:
Нет (DHT включён)
Размер:
283.49 Мб (297,265,756 байт) » файлов: 11
Участники:
0 раздают, 0 качают (0 участников всего)
Внешние участники:
3 раздают, 1 качают (4 участников всего) [ Обновить ]
For power users only: no seeders - write to support@pro-jazz.com. Для power user: нет сидеров - пишите на support@pro-jazz.com.
22:01
133
Нет комментариев. Ваш будет первым!