Поиск

(Fusion) Stanley Jordan - Magic Touch - 1985 , FLAC (image+.cue), lossless

(Fusion) Stanley Jordan - Magic Touch - 1985 , FLAC (image+.cue), lossless
Треклист:
Stanley Jordan - Magic Touch
Жанр: fusion
Год выпуска диска: 1985
Производитель диска: USA
Производитель диска: EU
Аудио кодек: FLAC
Тип рипа: image+.cue
Битрейт аудио: lossless
Продолжительность: 53:49
Трэклист:
01 Eleanor Rigby 7:00
02 Freddie Freeloader 6:03
03 ‘Round Midnight 5:03
04 All the Children 5:00
05 The Lady in My Life 6:25
06 Angel 4:11
07 Fundance 2:33
08 New Love 5:35
09 Return Expedition 8:00
10 A Child Is Born 3:33
Musicants:
Charnett Moffett - Bass, Bass (Acoustic)
Bugsy Moore - Percussion
Moore - Percussion
Wayne Brathwaite - Bass (Electric)
Al di Meola - Cymbals
Sammy Figueroa - Percussion
Peter Erskine - Drums
Omar Hakim - Drums
Stanley Jordan - Guitar
Onaje Allan Gumbs - Keyboards
 
Лог создания рипа
EAC extraction logfile from 27. July 2007, 23:47 for CD
Stanley Jordan / Magic Touch
Used drive : TSSTcorpCDW/DVD TS-H492A Adapter: 0 ID: 0
Read mode : Secure with NO C2, accurate stream, disable cache
Read offset correction : 665
Overread into Lead-In and Lead-Out : No
Used output format : C:\Programmi\wavpack-4.41\wavpack.exe (User Defined Encoder)
128 kBit/s
Additional command line options : -hm -w "Cuesheet=@*.cue" -w "Artist=%a" -w "Title=%t" -w "Album=%g" -w "Year=%y" -w "Track=%n" -w "Genre=%m" %s %d
Other options :
Fill up missing offset samples with silence : Yes
Delete leading and trailing silent blocks : No
Native Win32 interface for Win NT & 2000
Range status and errors
Selected range
Filename C:\Documents and Settings\HaisamJB\Desktop\Stanley Jordan - Magic Touch.wav.wav.wav
Peak level 97.2 %
Range quality 99.9 %
CRC 0DA14D61
Copy OK
No errors occured
End of status report
 
Содержание индексной карты (.CUE)
REM GENRE Jazz
REM DATE 1985
REM DISCID 6F0C9D0A
REM COMMENT "ExactAudioCopy v0.95b4"
PERFORMER "Stanley Jordan"
TITLE "Magic Touch"
FILE "Stanley Jordan - Magic Touch.flac" WAVE
TRACK 01 AUDIO
TITLE "Eleanor Rigby"
PERFORMER "Stanley Jordan"
INDEX 01 00:00:00
TRACK 02 AUDIO
TITLE "Freddie Freeloader"
PERFORMER "Stanley Jordan"
INDEX 00 07:02:70
INDEX 01 07:02:72
TRACK 03 AUDIO
TITLE "Round Midnight"
PERFORMER "Stanley Jordan"
INDEX 00 13:07:43
INDEX 01 13:12:57
TRACK 04 AUDIO
TITLE "All The Children"
PERFORMER "Stanley Jordan"
INDEX 00 18:17:50
INDEX 01 18:21:50
TRACK 05 AUDIO
TITLE "The Lady In My Life"
PERFORMER "Stanley Jordan"
INDEX 00 23:20:25
INDEX 01 23:23:30
TRACK 06 AUDIO
TITLE "Angel"
PERFORMER "Stanley Jordan"
INDEX 00 29:48:06
INDEX 01 29:50:17
TRACK 07 AUDIO
TITLE "Fundance"
PERFORMER "Stanley Jordan"
INDEX 00 34:03:33
INDEX 01 34:04:65
TRACK 08 AUDIO
TITLE "New Love"
PERFORMER "Stanley Jordan"
INDEX 00 36:37:21
INDEX 01 36:39:15
TRACK 09 AUDIO
TITLE "Return Expedition"
PERFORMER "Stanley Jordan"
INDEX 00 42:11:32
INDEX 01 42:13:32
TRACK 10 AUDIO
TITLE "A Child Is Born"
PERFORMER "Stanley Jordan"
INDEX 00 50:15:48
INDEX 01 50:17:37
 
Отчет CUETools
[CUETools log; Date: 11.10.2017 16:21:35; Version: 2.1.5]
[CTDB TOCID: 1zJaUClcywywtfMiPd89gtvfay4-] found.
Track | CTDB Status
1 | (11/11) Accurately ripped
2 | (11/11) Accurately ripped
3 | (11/11) Accurately ripped
4 | (11/11) Accurately ripped
5 | (11/11) Accurately ripped
6 | ( 9/11) Accurately ripped
7 | (11/11) Accurately ripped
8 | (11/11) Accurately ripped
9 | (11/11) Accurately ripped
10 | (11/11) Accurately ripped
[AccurateRip ID: 0015362d-00a6d868-6f0c9d0a] found.
Track [ CRC | V2 ] Status
01 [7fda3445|8bd0c298] (0+0/4) No match
02 [5aa41d9a|b59eb8d5] (0+0/4) No match
03 [7ed4df28|fbd2b041] (0+0/4) No match
04 [a1876a98|595455b7] (0+0/4) No match
05 [47515042|d01dbe1e] (0+0/4) No match
06 [af89898a|0b7d2a49] (0+0/4) No match
07 [7260dccb|ec1154ac] (0+0/4) No match
08 [6d9cb7b6|ca90555f] (0+0/4) No match
09 [3dbbc3d7|b3a8e033] (0+0/4) No match
10 [756b72ec|0a6bf1be] (0+0/4) No match
Offsetted by -659:
01 [4f662fa5] (2/4) Accurately ripped
02 [4e064634] (2/4) Accurately ripped
03 [124719b9] (2/4) Accurately ripped
04 [26fcd98f] (2/4) Accurately ripped
05 [f5cc196a] (2/4) Accurately ripped
06 [795d4ef7] (2/4) Accurately ripped
07 [461eac8d] (2/4) Accurately ripped
08 [f2b769d9] (2/4) Accurately ripped
09 [75b26451] (2/4) Accurately ripped
10 [de493b2d] (2/4) Accurately ripped
Offsetted by -1227:
01 [b5b1f8ef] (0/4) No match (V2 was not tested)
02 [0a7dae02] (0/4) No match (V2 was not tested)
03 [91b3965f] (0/4) No match (V2 was not tested)
04 [1bf366c7] (0/4) No match (V2 was not tested)
05 [ac716faf] (0/4) No match (V2 was not tested)
06 [0c07fdcc] (0/4) No match
07 [328ae173] (0/4) No match (V2 was not tested)
08 [fc7512ef] (0/4) No match (V2 was not tested)
09 [2acf06fd] (0/4) No match (V2 was not tested)
10 [01717345] (0/4) No match (V2 was not tested)
Offsetted by -1122:
01 [5e94c460] (0/4) No match
02 [18abb74d] (0/4) No match
03 [8a721b4c] (0/4) No match
04 [b64807aa] (0/4) No match
05 [2a33cdc8] (0/4) No match
06 [9330ed04] (0/4) No match (V2 was not tested)
07 [04648007] (0/4) No match
08 [7a8ce22a] (0/4) No match
09 [2e1c6214] (0/4) No match
10 [bae81361] (0/4) No match
Track Peak [ CRC32 ] [W/O NULL] [ LOG ]
-- 97,2 [290DBDC1] [0DA14D61] W/O NULL
01 80,2 [929EE99B] [1FE037BD]
02 97,2 [705134FA] [0698A74D]
03 68,9 [B24CC5BE] [F9A2424C]
04 52,7 [A1280496] [A56E2054]
05 93,5 [B8CDDCDC] [2E1C6081]
06 40,3 [66B97617] [F4FB4FD6]
07 38,7 [9AFA5DCC] [7F371FF1]
08 87,8 [FE786F57] [07F7BE8A]
09 56,6 [53E08E79] [5D588485]
10 36,6 [6A340D53] [B42F0F9A]
 
All Music Guide
This debut record from Stanley Jordan features the guitarist's extraordinarily idiosyncratic tapping technique on a variety of material. Jordan's revolutionary approach to the instrument, consisting of striking the fretboard with both hands to sound notes, allows him access to musical possibilities that are simply out of the reach of other guitar players. It is in his hands that the guitar attains a level of self-accompaniment formerly held only by the piano. Fortunately, Jordan puts his prodigious chops to good use making good music. One area in particular in which he is terrifically talented is in the reinterpretation of modern pop material. His version of the Beatles' "Eleanor Rigby," accompanied only by the subtle percussion of Sammy Figueroa, dismisses the British melancholy of the original for a light-as-air interpretation that brings out the playfulness in the melody. Also impressive is Jordan's cover of Michael Jackson's "The Lady in My Life," which the guitarist gives a smooth, sultry reading. On the flip side, Jordan also proves that he is not out of touch with the history of jazz, with delightful versions of "Freddie Freeloader," "'Round Midnight," and "A Child Is Born." The guitarist's sidemen, who include drummers Omar Hakim and Peter Erskine, are all seasoned professionals, and they play well, but no matter how good the group performances on Magic Touch are, they are no match for the shocking polyphony of Jordan's solo material. It is there that the record really comes alive. Jordan's later albums were not to capitalize on the promise shown on his debut, but in Magic Touch the guitarist had something truly special. An instant classic, and one of the definitive moments of modern jazz guitar.
Daniel Gioffre, All Music Guide
Уникальная техника игры, прекрасная музыка и фантастическая для дебютного альбома "группа поддержки".
Вот уж действительно, как в анекдоте: "...кто такой не известно, но на цимбалах у него Ал Ди Меола..."
Приватный:
Нет (DHT включён)
Размер:
254.23 Мб (266,576,044 байт) » файлов: 7
Участники:
0 раздают, 0 качают (0 участников всего)
Внешние участники:
5 раздают, 1 качают (6 участников всего) [ Обновить ]
For power users only: no seeders - write to support@pro-jazz.com. Для power user: нет сидеров - пишите на support@pro-jazz.com.
13:19
198
Нет комментариев. Ваш будет первым!