Вы используете незарегистрированную версию компонента "Вкладки"!

Поиск

(Fusion) Power Tools (Bill Frisell, Melvin Gibbs, Ronald Shannon Jackson) - Strange Meeting - 1987, APE (image+.cue), lossless

(Fusion) Power Tools (Bill Frisell, Melvin Gibbs, Ronald Shannon Jackson) - Strange Meeting - 1987, APE (image+.cue), lossless
Треклист:
Power Tools - Strange Meeting
Жанр: Fusion
Страна-производитель диска: США
Год издания: 1987
Издатель (лейбл): Antilles/Island
Номер по каталогу: 90627-2
Аудиокодек: APE (*.ape)
Тип рипа: image+.cue
Битрейт аудио: lossless
Продолжительность: 46:01
Источник (релизер): barin99 (nnm)
Наличие сканов в содержимом раздачи: да
Треклист:
01. Strange Meeting (Frisell) - 5:12
02. Wolf in Sheep's Clothing (Jackson) - 3:36
03. Wadmalaw Island (Gibbs) - 5:07
04. Unscientific Americans (Frisell) - 3:00
05. Howard Beach Memoirs (Gibbs) - 5:39
06. When We Go (Frisell) - 4:56
07. The President's Nap (Power Tools) - 3:55
08. A Song Is Not Enough (Gibbs) - 3:34
09. Blame & Shame (Jackson) - 5:41
10. Unchained Melody (North-Zaret) - 5:21
Состав:
Bill Frisell - electric guitar
Melvin Gibbs - electric bass
Ronald Shannon Jackson - drums
Recorded at Radio City Recording Studio, New York City on January 8-10, 1987.
 
Лог создания рипа
Exact Audio Copy V1.0 beta 1 from 15. November 2010
EAC extraction logfile from 10. May 2012, 21:09
Power Tools / Strange Meeting
Used drive : TSSTcorpDVD+-RW TS-L532B Adapter: 1 ID: 0
Read mode : Secure
Utilize accurate stream : Yes
Defeat audio cache : Yes
Make use of C2 pointers : No
Read offset correction : 704
Overread into Lead-In and Lead-Out : No
Fill up missing offset samples with silence : Yes
Delete leading and trailing silent blocks : No
Null samples used in CRC calculations : Yes
Used interface : Native Win32 interface for Win NT & 2000
Used output format : Internal WAV Routines
Sample format : 44.100 Hz; 16 Bit; Stereo
TOC of the extracted CD
Track | Start | Length | Start sector | End sector
---------------------------------------------------------
1 | 0:00.32 | 5:12.25 | 32 | 23456
2 | 5:12.57 | 3:36.33 | 23457 | 39689
3 | 8:49.15 | 5:06.55 | 39690 | 62694
4 | 13:55.70 | 3:00.37 | 62695 | 76231
5 | 16:56.32 | 5:38.70 | 76232 | 101651
6 | 22:35.27 | 4:56.05 | 101652 | 123856
7 | 27:31.32 | 3:54.53 | 123857 | 141459
8 | 31:26.10 | 3:33.60 | 141460 | 157494
9 | 34:59.70 | 5:40.60 | 157495 | 183054
10 | 40:40.55 | 5:21.12 | 183055 | 207141
Range status and errors
Selected range
Filename C:\Documents and Settings\VB\My Documents\BARIN99\Power Tools - Strange Meeting\Power Tools - Strange Meeting.wav
Peak level 98.8 %
Extraction speed 0.3 X
Range quality 100.0 %
Test CRC 10D34050
Copy CRC 49258A77
Copy OK
No errors occurred
AccurateRip summary
Track 1 accurately ripped (confidence 6) [B1FE363C]
Track 2 accurately ripped (confidence 6) [AEC5CB5A]
Track 3 accurately ripped (confidence 6) [68C07F16]
Track 4 accurately ripped (confidence 6) [EB4F5E8D]
Track 5 accurately ripped (confidence 5) [63E4A242]
Track 6 accurately ripped (confidence 5) [2A64883B]
Track 7 accurately ripped (confidence 6) [A9565629]
Track 8 accurately ripped (confidence 6) [0F7302C5]
Track 9 accurately ripped (confidence 6) [23127753]
Track 10 accurately ripped (confidence 6) [C7E3C5AE]
All tracks accurately ripped
End of status report
 
Содержание индексной карты (.CUE)
REM GENRE Jazz
REM DATE 1987
REM DISCID 770AC90A
REM COMMENT "ExactAudioCopy v1.0b1"
PERFORMER "Power Tools"
TITLE "Strange Meeting"
FILE "Power Tools - Strange Meeting.wav" WAVE
TRACK 01 AUDIO
TITLE "Strange Meeting"
PERFORMER "Power Tools"
INDEX 00 00:00:00
INDEX 01 00:00:32
TRACK 02 AUDIO
TITLE "Wolf in Sheep's Clothing"
PERFORMER "Power Tools"
INDEX 00 05:10:35
INDEX 01 05:12:57
TRACK 03 AUDIO
TITLE "Wadmalaw Island"
PERFORMER "Power Tools"
INDEX 01 08:49:15
TRACK 04 AUDIO
TITLE "Unscientific Americans"
PERFORMER "Power Tools"
INDEX 00 13:53:17
INDEX 01 13:55:70
TRACK 05 AUDIO
TITLE "Howard Beach Memoirs"
PERFORMER "Power Tools"
INDEX 00 16:53:17
INDEX 01 16:56:32
TRACK 06 AUDIO
TITLE "When We Go"
PERFORMER "Power Tools"
INDEX 00 22:32:52
INDEX 01 22:35:27
TRACK 07 AUDIO
TITLE "The President's Nap"
PERFORMER "Power Tools"
INDEX 00 27:29:07
INDEX 01 27:31:32
TRACK 08 AUDIO
TITLE "A Song Is Not Enough"
PERFORMER "Power Tools"
INDEX 00 31:23:07
INDEX 01 31:26:10
TRACK 09 AUDIO
TITLE "Blame & Shame"
PERFORMER "Power Tools"
INDEX 00 34:59:52
INDEX 01 34:59:70
TRACK 10 AUDIO
TITLE "Unchained Melody"
PERFORMER "Power Tools"
INDEX 00 40:38:50
INDEX 01 40:40:55
 
Review by Brian Olewnick
Power Tools was a one-off semi-supergroup that, if it didn't quite fulfill expectations, at least offered up this enjoyable album. It's an odd mixture; drummer Ronald Shannon Jackson was in the midst of his time with the free-metal-noise band Last Exit, bassist Melvin Gibbs was involved with various avant funk bands (including that of Arto Lindsay), and the pre-Naked City Bill Frisell was beginning to delve into that hazy area between country/Americana and jazz. Things don't gel so well when the band gets closer to free improv, as Frisell's inherent gauziness conflicts and deadens the impact of Jackson's more rambunctious approach. Things work better with the more song-oriented pieces, particularly those penned by Gibbs. His "Wadmalaw Island" and "Howard Beach Memoirs" both strike an appropriate balance, allowing Frisell to build on more solid structures while at the same time leaving room for Jackson to embroider freely. Much of the recording ping-pongs between these two poles: pleasant, if overly languid pastoral songs and higher-energy pieces that never quite rev up high enough. The closing rendition of "Unchained Melody," a song dear to Frisell's heart, is very effective. Strange Meeting, an apt title, is worth checking out for Frisell fans who only came to hear his work in the following years.
Any questions - support@pro-jazz.com. Есть вопросы - support@pro-jazz.com
14:59
291
Нет комментариев. Ваш будет первым!