Поиск

(Fusion, Post-Bop) [CD] Terumasa Hino - Feelin' Good - 1968 (2000 Japan Edition), FLAC (tracks+.cue), lossless

(Fusion, Post-Bop) [CD] Terumasa Hino - Feelin' Good - 1968 (2000 Japan Edition), FLAC (tracks+.cue), lossless
Terumasa Hino - Feelin' Good
Жанр: Fusion, Post-Bop
Носитель: CD
Страна-производитель диска (релиза): Япония
Год издания: 2000
Издатель (лейбл): Nippon Columbia (Takt Jazz Millenium Edition)
Номер по каталогу: COCB-31028
Аудиокодек: FLAC (*.flac)
Тип рипа: tracks+.cue
Битрейт аудио: lossless
Продолжительность: 45:36
Источник (релизер): measet (what)
Наличие сканов в содержимом раздачи: да
Треклист:
01. Mississippi Dip (Andrews) - 3:29
02. Feeling Good (Newley) - 7:29
03. And Satisfy (Bright) - 8:56
04. Trust Me Now (Kikuchi) - 8:46
05. The Magilla (Pearson) - 7:59
06. Lucy in the Sky with Diamonds (Lennon-McCartney) - 3:19
07. Trust Me Now (Kikuchi) - 5:38
 
Лог создания рипа
Exact Audio Copy V1.1 from 23. June 2015
EAC extraction logfile from 24. February 2016, 14:17
Terumasa Hino / Feelin' Good
Used drive : HL-DT-STDVD+-RW GS30N Adapter: 1 ID: 0
Read mode : Secure
Utilize accurate stream : Yes
Defeat audio cache : Yes
Make use of C2 pointers : No
Read offset correction : 667
Overread into Lead-In and Lead-Out : No
Fill up missing offset samples with silence : Yes
Delete leading and trailing silent blocks : No
Null samples used in CRC calculations : Yes
Used interface : Native Win32 interface for Win NT & 2000
Gap handling : Appended to previous track
Used output format : User Defined Encoder
Selected bitrate : 1024 kBit/s
Quality : High
Add ID3 tag : No
Command line compressor : C:\Program Files (x86)\Exact Audio Copy\FLAC\FLAC.EXE
Additional command line options : -6 -V -T "ARTIST=%artist%" -T "TITLE=%title%" -T "ALBUM=%albumtitle%" -T "DATE=%year%" -T "TRACKNUMBER=%tracknr%" -T "GENRE=%genre%" -T "COMMENT=%comment%" -T "BAND=%albuminterpret%" -T "ALBUMARTIST=%albuminterpret%" -T "COMPOSER=%composer%" %haslyrics%--tag-from-file=LYRICS="%lyricsfile%"%haslyrics% -T "DISCNUMBER=%cdnumber%" -T "TOTALDISCS=%totalcds%" -T "TOTALTRACKS=%numtracks%" %hascover%--picture="%coverfile%"%hascover% %source% -o %dest%
TOC of the extracted CD
Track | Start | Length | Start sector | End sector
---------------------------------------------------------
1 | 0:00.00 | 3:28.53 | 0 | 15652
2 | 3:28.53 | 7:29.22 | 15653 | 49349
3 | 10:58.00 | 8:56.23 | 49350 | 89572
4 | 19:54.23 | 8:45.52 | 89573 | 128999
5 | 28:40.00 | 7:59.23 | 129000 | 164947
6 | 36:39.23 | 3:18.70 | 164948 | 179867
7 | 39:58.18 | 5:37.70 | 179868 | 205212
Track 1
Filename D:\music\Terumasa Hino - Feelin' Good\01. Terumasa Hino - Mississippi Dip.wav
Pre-gap length 0:00:02.00
Peak level 99.0 %
Extraction speed 2.7 X
Track quality 100.0 %
Test CRC 64CB5170
Copy CRC 64CB5170
Accurately ripped (confidence 1) [F0D4335B] (AR v2)
Copy OK
Track 2
Filename D:\music\Terumasa Hino - Feelin' Good\02. Terumasa Hino - Feeling Good.wav
Pre-gap length 0:00:03.13
Peak level 98.9 %
Extraction speed 3.4 X
Track quality 100.0 %
Test CRC E6170486
Copy CRC E6170486
Accurately ripped (confidence 1) [8BE3588E] (AR v2)
Copy OK
Track 3
Filename D:\music\Terumasa Hino - Feelin' Good\03. Terumasa Hino - And Satisfy.wav
Pre-gap length 0:00:02.52
Peak level 98.9 %
Extraction speed 3.9 X
Track quality 100.0 %
Test CRC BC1DA755
Copy CRC BC1DA755
Accurately ripped (confidence 1) [48C79EEE] (AR v2)
Copy OK
Track 4
Filename D:\music\Terumasa Hino - Feelin' Good\04. Terumasa Hino - Trust Me Now.wav
Pre-gap length 0:00:03.10
Peak level 99.0 %
Extraction speed 4.3 X
Track quality 100.0 %
Test CRC A156EEB2
Copy CRC A156EEB2
Accurately ripped (confidence 1) [7D44C20F] (AR v2)
Copy OK
Track 5
Filename D:\music\Terumasa Hino - Feelin' Good\05. Terumasa Hino - The Magilla.wav
Pre-gap length 0:00:02.70
Peak level 98.9 %
Extraction speed 4.7 X
Track quality 100.0 %
Test CRC 133F61D1
Copy CRC 133F61D1
Accurately ripped (confidence 1) [6C721D7D] (AR v2)
Copy OK
Track 6
Filename D:\music\Terumasa Hino - Feelin' Good\06. Terumasa Hino - Lucy In The Sky With Diamonds.wav
Pre-gap length 0:00:02.63
Peak level 96.4 %
Extraction speed 4.6 X
Track quality 100.0 %
Test CRC 4BFAFCEE
Copy CRC 4BFAFCEE
Accurately ripped (confidence 1) [96ACF564] (AR v2)
Copy OK
Track 7
Filename D:\music\Terumasa Hino - Feelin' Good\07. Terumasa Hino - Trust Me Now (Live Bonus Track).wav
Pre-gap length 0:00:04.40
Peak level 98.9 %
Extraction speed 5.0 X
Track quality 100.0 %
Test CRC 82CF2ADB
Copy CRC 82CF2ADB
Accurately ripped (confidence 1) [4ED2572D] (AR v2)
Copy OK
All tracks accurately ripped
No errors occurred
End of status report
---- CUETools DB Plugin V2.1.6
[CTDB TOCID: B_LVc.Frskde6MsTeYudgaAlGXw-] found
Submit result: B_LVc.Frskde6MsTeYudgaAlGXw- has been confirmed
Track | CTDB Status
1 | (1/1) Accurately ripped
2 | (1/1) Accurately ripped
3 | (1/1) Accurately ripped
4 | (1/1) Accurately ripped
5 | (1/1) Accurately ripped
6 | (1/1) Accurately ripped
7 | (1/1) Accurately ripped
==== Log checksum F122743DE63B432190DC766ADD4587FD3467196F11A570AFE483549F86BFE1B8 ====
 
Содержание индексной карты (.CUE)
REM GENRE Jazz
REM DATE 1968
REM DISCID 390AB007
REM COMMENT "ExactAudioCopy v1.1"
CATALOG 4988001453291
PERFORMER "Terumasa Hino"
TITLE "Feelin' Good"
FILE "01 - Mississippi Dip.wav" WAVE
TRACK 01 AUDIO
TITLE "Mississippi Dip"
PERFORMER "Terumasa Hino"
ISRC JPCO06809780
INDEX 01 00:00:00
TRACK 02 AUDIO
TITLE "Feeling Good"
PERFORMER "Terumasa Hino"
ISRC JPCO06809790
INDEX 00 03:25:40
FILE "02 - Feeling Good.wav" WAVE
INDEX 01 00:00:00
TRACK 03 AUDIO
TITLE "And Satisfy"
PERFORMER "Terumasa Hino"
ISRC JPCO06809800
INDEX 00 07:26:45
FILE "03 - And Satisfy.wav" WAVE
INDEX 01 00:00:00
TRACK 04 AUDIO
TITLE "Trust Me Now"
PERFORMER "Terumasa Hino"
ISRC JPCO06809810
INDEX 00 08:53:13
FILE "04 - Trust Me Now.wav" WAVE
INDEX 01 00:00:00
TRACK 05 AUDIO
TITLE "The Magilla"
PERFORMER "Terumasa Hino"
ISRC JPCO06809820
INDEX 00 08:42:57
FILE "05 - The Magilla.wav" WAVE
INDEX 01 00:00:00
TRACK 06 AUDIO
TITLE "Lucy in the Sky with Diamonds"
PERFORMER "Terumasa Hino"
ISRC JPCO06809830
INDEX 00 07:56:35
FILE "06 - Lucy in the Sky with Diamonds.wav" WAVE
INDEX 01 00:00:00
TRACK 07 AUDIO
TITLE "Trust Me Now"
PERFORMER "Terumasa Hino"
ISRC JPCO06810150
INDEX 00 03:14:30
FILE "07 - Trust Me Now.wav" WAVE
INDEX 01 00:00:00
 
Отчет CUETools
[CUETools log; Date: 27.02.2016 17:02:19; Version: 2.1.5]
[CTDB TOCID: B_LVc.Frskde6MsTeYudgaAlGXw-] found.
Track | CTDB Status
1 | (2/2) Accurately ripped
2 | (2/2) Accurately ripped
3 | (2/2) Accurately ripped
4 | (2/2) Accurately ripped
5 | (2/2) Accurately ripped
6 | (2/2) Accurately ripped
7 | (2/2) Accurately ripped
[AccurateRip ID: 000cb845-004d68dd-390ab007] found.
Track [ CRC | V2 ] Status
01 [3b937752|f0d4335b] (0+1/1) Accurately ripped
02 [99bfd04a|8be3588e] (0+1/1) Accurately ripped
03 [d09042fd|48c79eee] (0+1/1) Accurately ripped
04 [98fd8ce3|7d44c20f] (0+1/1) Accurately ripped
05 [3fb8cd56|6c721d7d] (0+1/1) Accurately ripped
06 [2d7d8a53|96acf564] (0+1/1) Accurately ripped
07 [d11a8974|4ed2572d] (0+1/1) Accurately ripped
Track Peak [ CRC32 ] [W/O NULL] [ LOG ]
-- 99,0 [3C5EAEBC] [666DEB58]
01 99,0 [64CB5170] [8133A304] CRC32
02 98,9 [E6170486] [B1619197] CRC32
03 98,9 [BC1DA755] [75059FFE] CRC32
04 99,0 [A156EEB2] [A97A3A3D] CRC32
05 98,9 [133F61D1] [C585F95F] CRC32
06 96,4 [4BFAFCEE] [8D58AC39] CRC32
07 98,9 [82CF2ADB] [88757736] CRC32
 
Состав
Terumasa Hino, Koji Hatori - trumpet
Masabumi Kikuchi - piano
Takeru Muraoka - tenor saxophone
Takeshi Aoki, Hiroshi Suzuki - trombone
Yoshiaki Masuo, Toru Konishi - guitar
Motohiko Hino - drums
Kunimitsu Inaba - bass
Kaoru Chiba - flugelhorn
Jake - alto saxophone
Hiroshi Okazaki - baritone saxophone
Akira Miyazawa - flute
Fumio Watanabe - percussion
Recorded at Teichiku Kaikan Studio, Tokyo on June 4-27, 1968.
23:34
709
Нет комментариев. Ваш будет первым!