Поиск

(Fusion, Post-Bop) [CD] Joe Henderson, Masabumi Kikuchi, Terumasa Hino - Joe Henderson And Kikuchi, Hino In Concert (1971) - 2015, FLAC (tracks+.cue), lossless

(Fusion, Post-Bop) [CD] Joe Henderson, Masabumi Kikuchi, Terumasa Hino - Joe Henderson And Kikuchi, Hino In Concert (1971) - 2015, FLAC (tracks+.cue), lossless
Joe Henderson, Masabumi Kikuchi, Terumasa Hino - Joe Henderson And Kikuchi, Hino In Concert (1971) Жанр: Fusion, Post-Bop
Носитель: CD
Страна-производитель диска (релиза): Japan
Год издания: 2015
Издатель (лейбл): Fontana Japan/Unversal Japan
Номер по каталогу: UCCJ-9208
Аудиокодек: FLAC (*.flac)
Тип рипа: tracks+.cue
Битрейт аудио: lossless
Продолжительность: 44:00
Rip by ruskaval
Наличие сканов в содержимом раздачи: да
Треклист:
01. Sunrise In Tokyo (12:33)
02. So What (11:34)
03. Get Magic Again (19:53)
Personnel:
Joe Henderson - tenor saxophone
Terumasa Hino - trumpet
Kousuke Mine - alto and soprano saxophones
Masabumi Kikuchi - piano, electric piano
Yoshio Suzuki - bass
Hiroshi Murakami & Yoshiyuki Nakamura - drums
 
 
Лог создания рипа
Exact Audio Copy V1.1 from 23. June 2015
EAC extraction logfile from 25. January 2016, 23:11
Joe Henderson, Masabumi Kikuchi, Terumasa Hino / Joe Henderson And Kikuchi, Hino In Concert
Used drive : TSSTcorpCDDVDW SE-208DB Adapter: 7 ID: 0
Read mode : Secure
Utilize accurate stream : Yes
Defeat audio cache : Yes
Make use of C2 pointers : No
Read offset correction : 6
Overread into Lead-In and Lead-Out : No
Fill up missing offset samples with silence : Yes
Delete leading and trailing silent blocks : No
Null samples used in CRC calculations : Yes
Used interface : Installed external ASPI interface
Gap handling : Appended to previous track
Used output format : User Defined Encoder
Selected bitrate : 1024 kBit/s
Quality : High
Add ID3 tag : No
Command line compressor : C:\Program Files (x86)\FLAC Frontend\tools\flac.exe
Additional command line options : -8 -V -T "ARTIST=%artist%" -T "TITLE=%title%" -T "ALBUM=%albumtitle%" -T "DATE=%year%" -T "TRACKNUMBER=%tracknr%" -T "TOTALTRACKS=%numtracks%" -T "GENRE=%genre%" -T "ALBUMARTIST=%albumartist%" -T "ALBUM ARTIST=%albumartist%" -T "COMMENT=EAC Secure Mode, Test & Copy, AccurateRip, FLAC -8" %source%
TOC of the extracted CD
Track | Start | Length | Start sector | End sector
---------------------------------------------------------
1 | 0:00.00 | 12:33.00 | 0 | 56474
2 | 12:33.00 | 11:34.00 | 56475 | 108524
3 | 24:07.00 | 19:53.00 | 108525 | 197999
Track 1
Filename M:\_EAC\Joe Henderson And Kikuchi, Hino In Concert (1971) [FLAC] {UCCJ-9208}\01 - Sunrise In Tokyo.wav
Pre-gap length 0:00:02.00
Peak level 99.9 %
Extraction speed 1.4 X
Track quality 100.0 %
Test CRC 5FD87DAC
Copy CRC 5FD87DAC
Cannot be verified as accurate (confidence 1) [F499CB87], AccurateRip returned [436D8AE4] (AR v2)
Copy OK
Track 2
Filename M:\_EAC\Joe Henderson And Kikuchi, Hino In Concert (1971) [FLAC] {UCCJ-9208}\02 - So What.wav
Pre-gap length 0:00:03.74
Peak level 100.0 %
Extraction speed 1.8 X
Track quality 100.0 %
Test CRC A61A4455
Copy CRC A61A4455
Cannot be verified as accurate (confidence 1) [34D784FC], AccurateRip returned [5B6AB364] (AR v2)
Copy OK
Track 3
Filename M:\_EAC\Joe Henderson And Kikuchi, Hino In Concert (1971) [FLAC] {UCCJ-9208}\03 - Get Magic Again.wav
Pre-gap length 0:00:03.74
Peak level 100.0 %
Extraction speed 2.2 X
Track quality 100.0 %
Test CRC 0BF07575
Copy CRC 0BF07575
Cannot be verified as accurate (confidence 1) [C7544E90], AccurateRip returned [E67417D3] (AR v2)
Copy OK
No tracks could be verified as accurate
You may have a different pressing from the one(s) in the database
No errors occurred
End of status report
==== Log checksum BF426CFB39CF6C4312AAF37C82C2D7FFD437CCA858871B747B11B273B250221F ====
 
Содержание индексной карты (.CUE)
REM GENRE Jazz
REM DATE 1971
REM DISCID 250A5003
REM COMMENT "ExactAudioCopy v1.1"
PERFORMER "Joe Henderson, Masabumi Kikuchi, Terumasa Hino"
TITLE "Joe Henderson And Kikuchi, Hino In Concert"
FILE "01 - Sunrise In Tokyo.wav" WAVE
TRACK 01 AUDIO
TITLE "Sunrise In Tokyo"
PERFORMER "Joe Henderson, Masabumi Kikuchi, Terumasa Hino"
INDEX 01 00:00:00
TRACK 02 AUDIO
TITLE "So What"
PERFORMER "Joe Henderson, Masabumi Kikuchi, Terumasa Hino"
INDEX 00 12:29:01
FILE "02 - So What.wav" WAVE
INDEX 01 00:00:00
TRACK 03 AUDIO
TITLE "Get Magic Again"
PERFORMER "Joe Henderson, Masabumi Kikuchi, Terumasa Hino"
INDEX 00 11:30:01
FILE "03 - Get Magic Again.wav" WAVE
INDEX 01 00:00:00
22:41
980
Нет комментариев. Ваш будет первым!